<?xml version="1.0" standalone="no"?>
<!DOCTYPE svg PUBLIC "-//W3C//DTD SVG 1.1//EN" "http://www.w3.org/Graphics/SVG/1.1/DTD/svg11.dtd">
<svg xmlns="http://www.w3.org/2000/svg">
<metadata>Copyright (C) 2014 by original authors @ fontello.com</metadata>
<defs>
<font id="typicons" horiz-adv-x="1000" >
<font-face font-family="typicons" font-weight="400" font-stretch="normal" units-per-em="1000" ascent="850" descent="-150" />
<missing-glyph horiz-adv-x="1000" />
<glyph glyph-name="music-outline" unicode="&#xe800;" d="m729 797q42 0 74-31t31-73l0-529q0-86-70-147t-165-61q-93 0-159 57-30-50-85-80t-120-29q-96 0-166 61t-69 148q0 66 44 120t112 76l0 317q0 40 27 70t65 34l468 65q2 0 7 1t6 0z m-313-633q0 59 45 103t112 52l0 90-157-22 0-223z m313 0l0 529-469-66 0-413q-17 3-25 3-55 0-93-31t-38-73q0-44 39-75t92-30 92 30 38 75l0 319 260 38 0-203q-17 2-26 2-54 0-92-31t-38-74 38-74 92-30 92 30 38 74z" horiz-adv-x="834" />
<glyph glyph-name="music" unicode="&#xe801;" d="m753 794q11 2 20-6t8-20l0-629q0-53-45-91t-111-39-111 39-45 91 45 93 111 39l0 193-312-32 0-396q0-54-46-92t-111-38-110 38-46 92 46 92 110 38l0 537q0 10 7 18t16 8z" horiz-adv-x="781" />
<glyph glyph-name="search-outline" unicode="&#xe802;" d="m511 580q-65 0-110-46t-46-110 46-111 110-45 111 45 46 111-46 110-111 46z m0 51q87 0 147-60t61-147-61-148-147-61-147 61-61 148 61 147 147 60z m-511-555q0 68 48 115l117 119q-19 54-19 114 0 151 107 257t258 107 258-107 106-257-106-258-258-107q-53 0-113 19l-125-124q-49-41-110-41-68 0-115 48t-48 115z m336 88q-51 34-85 85l-130-131q-17-15-17-42 0-25 17-42t42-18q22 0 42 18z m175-1q108 0 184 76t76 185-76 184-184 76-184-76-77-184 77-185 184-76z" horiz-adv-x="875" />
<glyph glyph-name="search" unicode="&#xe803;" d="m511 788q152 0 258-107t106-257-106-258-258-107q-53 0-113 19l-122-122q-50-43-113-43-68 0-115 48t-48 115 46 114q53 54 79 80l40 40q-19 60-19 114 0 151 107 257t258 107z m0-625q108 0 184 76t76 185-76 184-184 76-184-76-77-184 77-185 184-76z m0 468q87 0 147-60t61-147-61-148-147-61-147 61-61 148 61 147 147 60z m0-363q65 0 111 45t46 111-46 110-111 46-110-46-46-110 46-111 110-45z" horiz-adv-x="875" />
<glyph glyph-name="mail" unicode="&#xe804;" d="m834 688q44 0 74-30t30-74l0-468q0-43-30-74t-74-30l-730 0q-44 0-74 30t-30 74l0 468q0 44 30 74t74 30l730 0z m-421-454l-82 72-190-190 655 0-190 190-81-72q-24-20-56-20t-56 20z m-309-82l187 189-187 163 0-352z m542 189l188-188 0 351z m188 243l-730 0 0-11 342-300q9-7 23-7t22 7l343 300 0 11z" horiz-adv-x="938" />
<glyph glyph-name="heart" unicode="&#xe805;" d="m508-66q-17 0-29 9-26 17-85 58t-154 112-134 110q-106 106-106 264 0 116 82 198t198 82q143 0 228-118 38 55 99 86t129 32q117 0 198-82t81-198q0-158-106-264-38-38-133-110t-155-113-83-57q-13-9-30-9z m-228 729q-72 0-124-51t-52-125q0-114 76-190 79-79 328-248 248 169 327 248 76 76 76 190 0 73-51 125t-124 51q-73 0-125-51t-51-125q0-22-16-37t-36-15-37 15-15 37q0 73-52 125t-124 51z" horiz-adv-x="1015" />
<glyph glyph-name="heart-filled" unicode="&#xe806;" d="m456 487q0 95-67 161t-161 67-162-67-66-161q0-137 91-229 37-36 128-104t164-118l73-50q282 190 364 272 91 92 91 229 0 95-66 161t-161 67-161-67-67-161z" horiz-adv-x="911" />
<glyph glyph-name="star" unicode="&#xe807;" d="m741-118q-19 0-39 12l-213 121-215-121q-44-24-84 3-41 29-31 79l50 243q-10 9-39 35t-45 40l-99 90q-37 35-21 82t66 54l244 26 102 225q22 47 72 47 47 0 71-47l101-225 245-27q48-4 65-52t-21-83l-183-166 50-242q7-35-16-64t-60-29z m-425 343q-1-4-7-36t-17-84-20-92l190 107q27 14 52 0l190-107-44 213q-6 29 16 49l161 148-217 23q-30 4-41 30l-90 199-90-199q-13-26-43-30l-216-23 161-148q21-19 15-50z" horiz-adv-x="976" />
<glyph glyph-name="star-filled" unicode="&#xe808;" d="m297 498q69 152 114 252 6 15 24 15t23-15l114-252q164-18 274-30 15-3 21-18t-6-27l-204-187q33-161 55-270 3-15-10-25t-27-2l-240 136q-144-81-240-136-15-9-28 2t-11 25l56 270q-122 112-204 187-12 11-6 26t21 19z" horiz-adv-x="869" />
<glyph glyph-name="user-outline" unicode="&#xe809;" d="m313 689q-65 0-111-46t-46-110 46-111 111-46 110 46 46 111-46 110-110 46z m0 104q107 0 183-77t77-183-77-184-183-76-184 76-76 184 76 183 184 77z m0-677q-74 0-127-22t-72-54q75-29 199-29t197 29q-21 30-73 53t-124 23z m0 104q136 0 224-63t88-146q0-41-89-72t-223-32q-140 0-227 32t-86 72q0 83 86 146t227 63z" horiz-adv-x="625" />
<glyph glyph-name="user" unicode="&#xe80a;" d="m313 793q107 0 183-77t77-183-77-184-183-76-184 76-76 184 76 183 184 77z m-313-782q0 83 86 146t227 63q136 0 224-63t88-146q0-41-89-72t-223-32q-140 0-227 32t-86 72z" horiz-adv-x="625" />
<glyph glyph-name="users-outline" unicode="&#xe80b;" d="m599 273q-108 0-184 76t-76 184 76 183 184 77 184-77 77-183-77-184-184-76z m0 416q-65 0-111-46t-45-110 45-111 111-46 110 46 46 111-46 110-110 46z m416-469q-55 0-92 38t-38 92 38 92 92 38 93-38 38-92-38-92-93-38z m0 209q-31 0-54-23t-23-56q0-31 22-54t55-23 56 23 23 54-23 55-56 24z m0-240q80 0 131-34t52-79q0-22-53-40t-130-17q-42 0-82 6 0-2 0-7t1-7q0-41-96-72t-239-31q-150 0-242 31t-92 72q0 3 1 8t0 7q-50-7-83-7-82 0-132 17t-51 40q0 45 50 79t133 34q98 0 151-50 99 81 265 81t265-81q52 50 151 50z m-832-118q60 0 102 12 5 7 13 17-38 38-115 38-98 0-127-49 44-18 127-18z m416-60q131 0 216 30-25 30-82 53t-134 22q-81 0-138-22t-80-53q84-30 218-30z m416 60q84 0 126 19-12 19-45 33t-81 15q-76 0-115-37 5-6 13-18 40-12 102-12z m-832 149q-55 0-93 38t-37 92 38 92 92 38 91-38 39-92-38-92-92-38z m0 209q-33 0-56-24t-23-55 23-54 56-23 55 23 22 54q0 33-23 56t-54 23z" horiz-adv-x="1198" />
<glyph glyph-name="users" unicode="&#xe80c;" d="m860 533q0-108-77-184t-184-76-184 76-76 184 76 183 184 77 184-77 77-183z m286-183q0-54-38-92t-93-38-92 38-38 92 38 92 92 38 93-38 38-92z m-131-161q80 0 131-34t52-79q0-22-53-40t-130-17q-42 0-82 6 0-2 0-7t1-7q0-41-96-72t-239-32q-150 0-242 32t-92 72q0 3 1 8t0 7q-50-7-83-7-82 0-132 17t-51 40q0 45 50 79t133 34q98 0 151-50 99 81 265 81t265-81q52 50 151 50z m-702 161q0-54-38-92t-92-38-93 38-37 92 37 92 93 38q53 0 91-38t39-92z" horiz-adv-x="1198" />
<glyph glyph-name="user-add-outline" unicode="&#xe80d;" d="m938 273l-313 0q-21 0-37 15t-15 36 15 37 37 15l313 0q21 0 36-15t16-37-16-36-36-15z m-157-157q-21 0-37 15t-15 37l0 312q0 21 15 37t37 16 37-16 16-37l0-312q0-22-16-37t-37-15z m-468 573q-65 0-111-46t-46-110 46-111 111-46 110 46 46 111-46 110-110 46z m0 104q107 0 183-77t77-183-77-184-183-76-184 76-76 184 76 183 184 77z m0-677q-74 0-127-22t-72-54q75-29 199-29t197 29q-21 30-73 53t-124 23z m0 104q136 0 224-63t88-146q0-41-89-72t-223-32q-140 0-227 32t-86 72q0 83 86 146t227 63z" horiz-adv-x="990" />
<glyph glyph-name="user-add" unicode="&#xe80e;" d="m573 533q0-108-77-184t-183-76-184 76-76 184 76 183 184 77 183-77 77-183z m-260-626q-140 0-227 32t-86 72q0 83 86 146t227 63q136 0 224-63t88-146q0-41-89-72t-223-32z m625 469q21 0 36-15t16-37-16-36-36-15l-104 0 0-105q0-22-16-37t-37-15-37 15-15 37l0 105-104 0q-21 0-37 15t-15 36 15 37 37 15l104 0 0 104q0 21 15 37t37 16 37-16 16-37l0-104 104 0z" horiz-adv-x="990" />
<glyph glyph-name="user-delete-outline" unicode="&#xe80f;" d="m938 273l-313 0q-21 0-37 15t-15 36 15 37 37 15l313 0q21 0 36-15t16-37-16-36-36-15z m-625 416q-65 0-111-46t-46-110 46-111 111-46 110 46 46 111-46 110-110 46z m0 104q107 0 183-77t77-183-77-184-183-76-184 76-76 184 76 183 184 77z m0-677q-74 0-127-22t-72-54q75-29 199-29t197 29q-21 30-73 53t-124 23z m0 104q136 0 224-63t88-146q0-41-89-72t-223-32q-140 0-227 32t-86 72q0 83 86 146t227 63z" horiz-adv-x="990" />
<glyph glyph-name="user-delete" unicode="&#xe810;" d="m938 273l-313 0q-21 0-37 15t-15 36 15 37 37 15l313 0q21 0 36-15t16-37-16-36-36-15z m-625 520q107 0 183-77t77-183-77-184-183-76-184 76-76 184 76 183 184 77z m0-573q136 0 224-63t88-146q0-41-89-72t-223-32q-140 0-227 32t-86 72q0 83 86 146t227 63z" horiz-adv-x="990" />
<glyph glyph-name="video" unicode="&#xe811;" d="m209 533l416 0 0-365-416 0 0 365z m364-313l0 260-313 0 0-260 313 0z m105 625q65 0 110-46t46-110l0-678q0-65-46-110t-110-46l-157 0 0 104-208 0 0-104-157 0q-65 0-110 46t-46 110l0 678q0 65 46 110t110 46l157 0 0-105 208 0 0 105 157 0z m51-209l0 53q0 21-15 36t-36 15l-53 0 0-104-416 0 0 104-53 0q-21 0-37-15t-15-36l0-53q21 0 37-15t15-37-15-36-37-15l0-53q21 0 37-16t15-36-15-37-37-15l0-52q21 0 37-16t15-37-15-36-37-15l0-52q21 0 37-16t15-37-15-36-37-15l0-53q0-21 15-37t37-15l53 0 0 105 416 0 0-105 53 0q21 0 36 15t15 37l0 53q-21 0-36 15t-15 36 15 37 36 16l0 52q-21 0-36 15t-15 36 15 37 36 16l0 52q-21 0-36 15t-15 37 15 36 36 16l0 53q-21 0-36 15t-15 36 15 37 36 15z" horiz-adv-x="834" />
<glyph glyph-name="videocam-outline" unicode="&#xe812;" d="m209 455q0 51 51 51 53 0 53-51 0-53-53-53-51 0-51 53z m520 312q60 0 104-40t51-96l89 29q25 8 46-8t22-41l0-313q0-25-21-42t-47-8l-89 30q-8-56-51-96t-104-40l-104 0 0-54q0-62-46-108t-110-47-107 43-49 107l0 59-157 0q-63 0-110 46t-46 110l0 313q0 64 46 110t110 46l573 0z m-260-730q20 0 36 16t16 35l0 105-105 0 0-105q3-21 17-36t36-15z m260 209q22 0 37 15t15 37l0 313q0 21-15 36t-37 15l-573 0q-21 0-37-15t-15-36l0-313q0-21 15-37t37-15l573 0z m209 125l0 167-104-31 0-105q6 0 104-31z" horiz-adv-x="1041" />
<glyph glyph-name="videocam" unicode="&#xe813;" d="m1041 610q23 0 38-15t15-36l0-418q0-21-15-36t-38-15q-12 0-22 5l-134 66 0-20q0-65-46-110t-110-46l-573 0q-65 0-110 46t-46 110l0 418q0 65 46 110t110 46l573 0q65 0 110-46t46-110l0-20 134 66q10 5 22 5z m-781-337q33 0 56 22t23 55-23 55-56 23-55-23-22-55 22-55 55-22z" horiz-adv-x="1094" />
<glyph glyph-name="picture-outline" unicode="&#xe814;" d="m339 559q-31 0-55-23t-24-56q0-31 23-54t56-23q31 0 54 22t23 55-23 56-54 23z m0 51q54 0 92-37t38-93-38-92-92-38-92 38-38 92 38 93 92 37z m156-416q-49 0-94 26t-88 27q-40 0-84-105l592 0q-18 85-46 145t-46 63q-34 0-96-70-25-27-41-42t-43-29-54-15z m234 209q46 0 85-78t55-157l16-78-729 0q3 9 7 23t18 49 32 63 43 50 57 23q55 0 101-26t81-25q25 0 54 24t53 54 57 53 70 25z m312 260l0-625q0-43-30-73t-73-31l-834 0q-44 0-74 31t-30 73l0 625q0 42 30 73t74 31l834 0q42 0 73-31t30-73z m-103-625l0 625-834 0 0-625 834 0z" horiz-adv-x="1041" />
<glyph glyph-name="picture" unicode="&#xe815;" d="m209 481q0 130 130 130t130-130-130-130-130 130z m520-79q41 0 77-61 52-93 79-251l-729 0 17 52q17 54 55 105t85 51q53 0 126-38 25-14 56-14 38 0 86 55 58 65 92 85 27 16 56 16z m-729 261q0 43 30 73t74 31l834 0q42 0 73-31t30-73l0-625q0-44-30-74t-73-31l-834 0q-43 0-73 31t-31 74l0 625z m938-625l0 625-834 0 0-625 834 0z" horiz-adv-x="1041" />
<glyph glyph-name="camera-outline" unicode="&#xe816;" d="m885-66l-729 0q-65 0-110 46t-46 110l0 417q0 65 46 110t110 46l83 0 52 52q23 23 58 37t67 15l209 0q33 0 68-15t58-37l52-52 82 0q65 0 111-46t45-110l0-417q0-65-45-110t-111-46z m-729 625q-21 0-37-16t-15-36l0-417q0-21 15-37t37-15l729 0q21 0 37 15t16 37l0 417q0 21-16 36t-37 16l-104 0q-21 0-36 15l-67 68q-22 21-53 21l-209 0q-30 0-51-21l-67-68q-15-15-38-15l-104 0z m365-105q-53 0-92-38t-39-92 39-92 92-38 92 38 38 92-38 92-92 38z m0 53q77 0 129-54t53-129q0-75-54-129t-128-53q-76 0-129 53t-53 129q0 76 53 129t129 54z m313 16q27 0 47-20t20-49-19-48-48-19-49 20-20 47q0 29 20 49t49 20z" horiz-adv-x="1041" />
<glyph glyph-name="camera" unicode="&#xe817;" d="m885 663q65 0 111-46t45-110l0-417q0-65-45-110t-111-46l-729 0q-65 0-110 46t-46 110l0 417q0 65 46 110t110 46l83 0 52 52q23 23 58 37t67 15l209 0q33 0 68-15t58-37l52-52 82 0z m-364-521q75 0 128 53t54 129q0 76-53 129t-129 54-129-54-53-129q0-75 53-129t129-53z m313 245q29 0 48 19t19 48-20 49-47 20q-29 0-49-20t-20-49q0-27 20-47t49-20z" horiz-adv-x="1041" />
<glyph glyph-name="th-outline" unicode="&#xe818;" d="m209 142q44 0 74-31t30-73l0-104q0-44-31-74t-73-31l-105 0q-43 0-73 31t-31 74l0 104q0 42 30 73t74 31l105 0z m0-208l0 104-105 0 0-104 105 0z m0 573q44 0 74-31t30-73l0-105q0-43-30-73t-74-31l-105 0q-44 0-74 31t-30 73l0 105q0 42 30 73t74 31l105 0z m0-209l0 105-105 0 0-105 105 0z m0 574q42 0 73-31t31-74l0-104q0-43-30-73t-74-31l-105 0q-44 0-74 31t-30 73l0 104q0 43 31 74t73 31l105 0z m0-209l0 104-105 0 0-104 105 0z m364-521q43 0 74-31t31-73l0-104q0-44-32-74t-73-31l-104 0q-43 0-73 31t-31 74l0 104q0 42 30 73t74 31l104 0z m0-208l0 104-104 0 0-104 104 0z m0 573q43 0 74-31t31-73l0-105q0-43-31-73t-74-31l-104 0q-44 0-74 31t-30 73l0 105q0 42 30 73t74 31l104 0z m0-209l0 105-104 0 0-105 104 0z m0 574q42 0 73-31t32-74l0-104q0-43-31-73t-74-31l-104 0q-44 0-74 31t-30 73l0 104q0 43 31 74t73 31l104 0z m0-209l0 104-104 0 0-104 104 0z m365-521q42 0 73-31t30-73l0-104q0-44-30-74t-73-31l-104 0q-44 0-75 31t-30 74l0 104q0 42 30 73t75 31l104 0z m0-208l0 104-104 0 0-104 104 0z m0 573q42 0 73-31t30-73l0-105q0-43-30-73t-73-31l-104 0q-44 0-75 31t-30 73l0 105q0 42 30 73t75 31l104 0z m0-209l0 105-104 0 0-105 104 0z m0 574q42 0 73-31t30-74l0-104q0-43-30-73t-73-31l-104 0q-44 0-75 31t-30 73l0 104q0 43 30 74t75 31l104 0z m0-209l0 104-104 0 0-104 104 0z" horiz-adv-x="1041" />
<glyph glyph-name="th" unicode="&#xe819;" d="m0-15q0 130 130 130t130-130-130-130-130 130z m0 365q0 130 130 130t130-130-130-130-130 130z m0 365q0 130 130 130t130-130-130-130-130 130z m365-730q0 130 130 130t130-130-130-130-130 130z m0 365q0 130 130 130t130-130-130-130-130 130z m0 365q0 130 130 130t130-130-130-130-130 130z m364-730q0 130 131 130 130 0 130-130t-130-130q-131 0-131 130z m0 365q0 130 131 130 130 0 130-130t-130-130q-131 0-131 130z m0 365q0 130 131 130 130 0 130-130t-130-130q-131 0-131 130z" horiz-adv-x="990" />
<glyph glyph-name="th-large-outline" unicode="&#xe81a;" d="m365 872q43 0 73-31t31-74l0-260q0-44-31-74t-73-30l-261 0q-44 0-74 30t-30 74l0 260q0 43 31 74t73 31l261 0z m0-365l0 260-261 0 0-260 261 0z m573 365q42 0 73-31t30-74l0-260q0-44-30-74t-73-30l-260 0q-44 0-75 30t-30 74l0 260q0 43 31 74t74 31l260 0z m0-365l0 260-260 0 0-260 260 0z m-573-209q43 0 73-30t31-74l0-260q0-44-31-74t-73-31l-261 0q-43 0-73 31t-31 74l0 260q0 44 30 74t74 30l261 0z m0-364l0 260-261 0 0-260 261 0z m573 364q42 0 73-30t30-74l0-260q0-44-30-74t-73-31l-260 0q-43 0-74 31t-31 74l0 260q0 43 30 73t75 31l260 0z m0-364l0 260-260 0 0-260 260 0z" horiz-adv-x="1041" />
<glyph glyph-name="th-large" unicode="&#xe81b;" d="m0 663q0 65 46 110t110 46l104 0q65 0 111-46t45-110l0-104q0-65-45-111t-111-45l-104 0q-65 0-110 45t-46 111l0 104z m521 0q0 65 46 110t111 46l103 0q65 0 111-46t46-110l0-104q0-65-46-111t-111-45l-103 0q-65 0-111 45t-46 111l0 104z m-521-521q0 65 46 110t110 46l104 0q65 0 111-46t45-110l0-104q0-65-45-111t-111-46l-104 0q-65 0-110 46t-46 111l0 104z m521 0q0 65 46 110t111 46l103 0q65 0 111-46t46-110l0-104q0-65-46-111t-111-46l-103 0q-65 0-111 46t-46 111l0 104z" horiz-adv-x="938" />
<glyph glyph-name="th-list-outline" unicode="&#xe81c;" d="m885 38l-364 0q-21 0-37-16t-15-37 15-36 37-15l364 0q21 0 37 15t16 36-16 37-37 16z m0 104q65 0 111-46t45-111-45-110-111-46l-364 0q-65 0-110 46t-46 110 46 111 110 46l364 0z m0 261l-364 0q-21 0-37-16t-15-37 15-37 37-15l364 0q21 0 37 15t16 37-16 37-37 16z m0 104q65 0 111-46t45-111-45-110-111-46l-364 0q-65 0-110 46t-46 110 46 111 110 46l364 0z m0 260l-364 0q-21 0-37-15t-15-37 15-37 37-15l364 0q21 0 37 15t16 37-16 37-37 15z m0 105q65 0 111-46t45-111-45-110-111-46l-364 0q-65 0-110 46t-46 110 46 111 110 46l364 0z m-676-730q44 0 74-31t30-73l0-104q0-44-31-74t-73-31l-105 0q-43 0-73 31t-31 74l0 104q0 42 30 73t74 31l105 0z m0-208l0 104-105 0 0-104 105 0z m0 573q44 0 74-31t30-73l0-105q0-43-30-73t-74-31l-105 0q-44 0-74 31t-30 73l0 105q0 42 30 73t74 31l105 0z m0-209l0 105-105 0 0-105 105 0z m0 574q42 0 73-31t31-74l0-104q0-43-30-73t-74-31l-105 0q-44 0-74 31t-30 73l0 104q0 43 31 74t73 31l105 0z m0-209l0 104-105 0 0-104 105 0z" horiz-adv-x="1041" />
<glyph glyph-name="th-list" unicode="&#xe81d;" d="m860 90q43 0 73-31t31-74q0-43-31-73t-73-31l-365 0q-44 0-74 31t-31 73 31 74 74 31l365 0z m0 364q43 0 73-31t31-73-31-73-73-31l-365 0q-44 0-74 31t-31 73 31 73 74 31l365 0z m0 365q43 0 73-31t31-73q0-44-31-74t-73-31l-365 0q-42 0-74 31t-31 74 31 73 74 31l365 0z m-860-834q0 130 130 130t130-130-130-130-130 130z m0 365q0 130 130 130t130-130-130-130-130 130z m0 365q0 130 130 130t130-130-130-130-130 130z" horiz-adv-x="964" />
<glyph glyph-name="ok-outline" unicode="&#xe81e;" d="m365-41q-66 0-111 45l-208 209q-46 46-46 110 0 65 46 111 44 44 110 44t110-44l63-62 160 287q20 38 57 60t79 22q88 0 134-76t2-157l-260-469q-43-80-136-80z m-209 417q-21 0-37-16t-15-37q0-20 16-36l208-209q18-19 44-15t38 26l260 469q11 23 4 43t-24 28q-19 10-39 4t-31-24l-227-408-160 160q-15 15-37 15z" horiz-adv-x="783" />
<glyph glyph-name="ok" unicode="&#xe81f;" d="m625 676q38-20 49-63t-9-80l-260-469q-30-53-91-53-43 0-74 31l-209 207q-31 32-31 74t31 74 74 31 74-31l111-110 193 347q20 38 62 50t80-8z" horiz-adv-x="679" />
<glyph glyph-name="cancel-outline" unicode="&#xe820;" d="m729 143q0-64-46-110t-110-47-110 47l-98 97-99-97q-43-44-110-44t-110 44q-46 46-46 110 0 65 46 111l98 98-98 97q-46 46-46 111 0 64 46 110 44 44 110 44t110-44l99-97 98 97q43 44 110 44t111-44q45-45 45-110 0-66-45-111l-99-97 99-98q45-45 45-111z m-364 135l171-171q15-15 37-15t37 15 15 36q0 22-15 37l-171 172 171 171q15 15 15 37 0 22-15 37t-37 15-37-15l-171-172-172 172q-15 15-37 15t-36-15q-16-17-16-37 0-21 16-37l171-171-171-172q-16-16-16-37 0-20 16-36 15-15 36-15t37 15z" horiz-adv-x="729" />
<glyph glyph-name="cancel" unicode="&#xe821;" d="m596 632q32-31 32-74t-32-74l-135-135 135-135q32-31 32-73t-32-74q-30-30-73-30t-74 30l-135 135-135-135q-30-30-74-30t-74 30q-31 31-31 74t31 73l135 135-135 135q-31 32-31 74t31 74q30 31 74 31t74-31l135-135 135 135q30 31 74 31t73-31z" horiz-adv-x="628" />
<glyph glyph-name="cancel-alt" unicode="&#xe822;" d="m936-67l-521 0q-56 0-116 30t-91 77l-137 191q-13 19-29 41t-24 33-8 12q-10 14-10 33t9 32q5 5 64 88l135 190q32 46 91 76t116 31l521 0q65 0 111-46t46-110l0-522q0-65-46-110t-111-46z m-821 417q6-9 21-30t20-28l137-191q17-25 55-45t67-19l521 0q22 0 37 16t15 37l0 521q0 21-15 36t-37 15l-521 0q-30 0-67-19t-55-43l-135-190q-8-10-22-32t-21-28z m545 0l139-138q12-12 5-29t-24-16q-10 0-19 9l-137 137-138-137q-8-9-18-9-17 0-24 16t5 29l137 138-137 138q-11 12-6 25t18 18 25-6l138-138 137 138q18 17 36-1t1-36z" horiz-adv-x="1093" />
<glyph glyph-name="cancel-alt-filled" unicode="&#xe823;" d="m911 741q54 0 92-39t38-91l0-522q0-53-38-92t-92-38l-521 0q-50 0-103 28t-82 67l-137 192q-59 83-62 86-12 17 0 35l8 11q9 13 24 34t31 42l135 190q29 40 82 68t104 29l521 0z m-120-510l-118 118 118 120q15 15 15 37t-15 37-37 15-36-15l-119-120-120 120q-15 15-37 15t-37-15-15-37 15-37l120-120-120-118q-15-15-15-37t15-37q16-16 38-16 20 0 36 16l120 119 119-119q16-16 37-16 20 0 36 16 15 15 15 37t-15 37z" horiz-adv-x="1041" />
<glyph glyph-name="cancel-circled-outline" unicode="&#xe824;" d="m469 819q194 0 331-137t138-332-138-331-331-138-331 138-138 331 138 332 331 137z m0-834q151 0 258 107t107 258-107 258-258 107-258-107-107-258 107-258 258-107z m36 365l139-137q12-13 5-29t-24-16q-11 0-19 7l-137 139-138-139q-7-7-18-7-17 0-24 16t5 29l139 137-139 138q-18 17 1 36t36 1l138-138 137 138q18 18 37-1t1-36z" horiz-adv-x="938" />
<glyph glyph-name="cancel-circled" unicode="&#xe825;" d="m416 767q173 0 295-122t123-295-123-294-295-122-294 122-122 294 122 295 294 122z m194-537l-120 120 120 120q15 15 15 37t-15 36-37 15-37-15l-120-119-118 119q-15 15-37 15t-37-15-15-36 15-37l119-120-119-120q-15-15-15-36t15-36q16-16 36-16 21 0 38 16l118 119 120-119q17-16 37-16 21 0 37 16 15 15 15 36t-15 36z" horiz-adv-x="834" />
<glyph glyph-name="plus-outline" unicode="&#xe826;" d="m469-119q-65 0-111 46t-45 111l2 159-157-3q-65 0-112 46t-46 110 46 111 110 46l159 2-2 153q0 65 45 111t111 46 110-46 46-110l3-154 155-3q63 0 109-45t46-111-46-110-111-46l-153 2-3-160q0-63-46-109t-110-46z m-53 417l0-261q0-22 16-37t37-15 37 16 15 37l0 260 262 0q21 0 36 15t15 37-16 37-37 16l-260 0 0 260q0 22-15 37t-37 15-37-15-16-37l0-260-260 0q-22 0-37-16t-15-37 15-37 37-15l260 0z" horiz-adv-x="938" />
<glyph glyph-name="plus" unicode="&#xe827;" d="m729 454q44 0 74-31t31-73-31-73-74-30l-208 3 0-212q0-43-30-73t-75-31-73 31-30 73l3 212-212-3q-44 0-74 30t-30 73 30 73 74 31l212 0-3 209q0 42 30 73t73 31 75-31 30-73l0-209 208 0z" horiz-adv-x="834" />
<glyph glyph-name="minus-outline" unicode="&#xe828;" d="m781 194l-625 0q-65 0-110 46t-46 110 46 111 110 46l625 0q65 0 111-46t46-111-46-110-111-46z m-625 209q-21 0-37-16t-15-37 15-36 37-15l625 0q22 0 37 15t16 36-16 37-37 16l-625 0z" horiz-adv-x="938" />
<glyph glyph-name="minus" unicode="&#xe829;" d="m729 455q44 0 74-32t31-73-31-74-74-30l-625 0q-44 0-74 30t-30 74q0 43 31 74t73 31l625 0z" horiz-adv-x="834" />
<glyph glyph-name="divide-outline" unicode="&#xe82a;" d="m469 533q-65 0-111 45t-45 111 45 110 111 46 110-46 46-110-46-111-110-45z m0 207q-21 0-37-15t-16-36 16-37 37-16 37 16 15 37-15 36-37 15z m0-885q-65 0-111 46t-45 110 45 111 111 46 110-46 46-111-46-110-110-46z m0 209q-21 0-37-16t-16-37 16-36 37-15 37 15 15 36-15 37-37 16z m312 130l-625 0q-65 0-110 45t-46 111 46 111 110 45l625 0q65 0 111-45t46-111-46-111-111-45z m-625 209q-21 0-37-16t-15-37 15-37 37-15l625 0q22 0 37 15t16 37-16 37-37 16l-625 0z" horiz-adv-x="938" />
<glyph glyph-name="divide" unicode="&#xe82b;" d="m300 663q0 117 116 117 118 0 118-117t-118-118q-116 0-116 118z m0-625q0 117 116 117 118 0 118-117t-118-118q-116 0-116 118z m-300 312q0 43 30 73t74 31l625 0q44 0 74-31t31-73-31-73-74-31l-625 0q-44 0-74 31t-30 73z" horiz-adv-x="834" />
<glyph glyph-name="eq-outline" unicode="&#xe82c;" d="m781 377l-625 0q-65 0-110 45t-46 111 46 110 110 46l625 0q65 0 111-46t46-110-46-111-111-45z m-625 208q-21 0-37-15t-15-37 15-37 37-16l625 0q22 0 37 16t16 37-16 37-37 15l-625 0z m625-573l-625 0q-65 0-110 45t-46 111 46 110 110 46l625 0q65 0 111-46t46-110-46-111-111-45z m-625 208q-21 0-37-15t-15-37 15-36 37-15l625 0q22 0 37 15t16 36-16 37-37 15l-625 0z" horiz-adv-x="938" />
<glyph glyph-name="eq" unicode="&#xe82d;" d="m729 637q44 0 74-31t31-73-31-73-74-31l-625 0q-44 0-74 30t-30 74 30 74 74 30l625 0z m0-364q44 0 74-31t31-74q0-43-31-73t-74-31l-625 0q-44 0-74 30t-30 74 31 74 73 31l625 0z" horiz-adv-x="834" />
<glyph glyph-name="info-outline" unicode="&#xe82e;" d="m429 115q50-6 78-51 18-31 12-69t-34-61q-92-79-215-79-160 0-220 122-52 109 13 238l30 58q-51 6-79 51-19 31-12 69t33 61q64 54 154 71-32 53-32 111 0 87 61 148t147 61 147-61 61-148q0-62-35-114t-90-77q40-52 44-123t-34-149z m-64 625q-43 0-74-31t-31-73 31-73 74-31q43 0 73 31t31 73-31 73-73 31z m-95-781q39 0 76 13t54 27l17 12q-33-11-63-11-46 0-56 33t15 82l52 104q44 91 10 150t-123 59q-39 0-76-14t-54-25l-18-13q34 12 64 12 46 0 56-34t-15-81l-52-104q-44-91-10-151t123-59z" horiz-adv-x="573" />
<glyph glyph-name="info" unicode="&#xe82f;" d="m331 37q18 6 30-12t-4-34q-5-5-22-16t-59-26-84-15q-109 0-149 79-35 74 13 167l52 104q28 55 3 73-5 5-22 5-11 0-24-3t-22-5l-7-2q-19-7-31 11t4 32q7 7 22 17t58 26 84 16q111 0 150-79 35-73-12-167l-53-104q-27-56-2-74 3-3 21-3 11 0 24 2t22 5z m-174 600q0 130 130 130t130-130-130-130-130 130z" horiz-adv-x="417" />
<glyph glyph-name="home-outline" unicode="&#xe830;" d="m1108 422q38-30 38-80 0-42-30-73t-75-31l-51 0 0-312q0-44-31-75t-74-30l-625 0q-42 0-73 30t-31 75l0 312-52 0q-44 0-74 31t-30 73q0 46 36 79 79 66 204 174t211 181 88 75l34 29 35-29q1-1 86-75t211-181 203-173z m-430-496l0 260-209 0 0-260 209 0z m207 416l156 0q-231 194-468 400-238-206-469-400l156 0 0-416 156 0 0 312 313 0 0-312 156 0 0 416z" horiz-adv-x="1146" />
<glyph glyph-name="home" unicode="&#xe831;" d="m521 819q322-279 500-429 20-16 20-40 0-21-15-37t-36-15l-105 0 0-364q0-21-15-37t-36-16l-156 0q-22 0-37 16t-16 37l0 208-209 0 0-208q0-21-15-37t-36-16l-156 0q-21 0-37 16t-16 37l0 364-103 0q-22 0-37 15t-16 37 19 40z" horiz-adv-x="1041" />
<glyph glyph-name="link-outline" unicode="&#xe832;" d="m786 720q-23 0-40-16l-90-90-16 16q-45 45-114 45t-113-45l-218-217q-47-48-47-115 0-66 47-114l15-16-89-89q-16-16-16-40t16-41q18-18 40-18 24 0 42 18l88 90 17-16q47-48 115-48 66 0 113 48l218 217q46 46 46 114t-46 114l-16 16 90 90q17 17 17 41t-17 40q-17 16-42 16z m-625-844q-66 0-113 49t-48 113q0 67 48 115l25 25q-29 57-29 120 0 111 77 189l218 217q76 76 187 76 65 0 120-28l27 26q46 46 113 46 67 0 114-48t48-113q0-69-48-114l-25-25q30-60 30-121 0-109-79-188l-216-217q-77-78-189-78-63 0-121 29l-25-25q-47-48-114-48z m414 469q-42 2-74 33t-32 74l-95-97q42-1 73-32t32-73z m-49 218q19 0 33-14l16-16-37-38q-18-17-18-41t18-40q16-16 40-16 25 0 41 16l37 38 17-17q13-13 13-32 0-20-13-34l-218-216q-14-14-32-14-20 0-34 14l-16 15 37 37q18 18 18 42t-18 40q-17 17-40 17-24 0-41-17l-38-38-16 16q-12 13-12 33 0 21 12 34l218 217q13 14 33 14z" horiz-adv-x="948" />
<glyph glyph-name="link" unicode="&#xe833;" d="m723 704q17-16 17-40t-17-41l-89-90 15-17q47-47 47-113t-47-114l-216-218q-48-47-115-47-67 0-114 47l-16 17-90-90q-18-18-40-18-24 0-42 18-16 17-16 41t16 40l90 89-16 16q-46 46-46 115 0 67 46 114l218 217q46 46 114 46t114-46l17-16 88 90q17 16 40 16t42-16z m-154-335q12 12 12 34 0 20-12 32l-16 16-38-37q-16-16-41-16-24 0-40 16t-16 40 16 41l37 38-16 16q-14 14-32 14-20 0-34-14l-218-218q-13-13-13-32 0-20 13-34l17-16 37 37q18 18 41 18 23 0 40-18 17-16 17-40t-17-41l-37-37 16-15q14-14 33-14 20 0 33 14z" horiz-adv-x="740" />
<glyph glyph-name="attach-outline" unicode="&#xe834;" d="m389 328q-11 0-18 8t-7 17q0 11 7 19l237 236q31 31 72 31 44 0 75-31 30-30 30-74t-30-74q-61-61-184-183t-185-184q-31-31-73-31t-74 31q-30 30-30 74t30 73l5 5q-36 48-36 110l-43-41q-61-61-61-147t61-148 148-61 147 61l368 369q61 61 61 147t-61 147-148 61q-85 0-146-61l-236-237q-39-38-39-91 0-54 39-92t91-39q54 0 92 39l112 110q30 30 30 73 0 43-32 74l-183-184q-8-7-19-7z m291 519q130 0 221-92t92-221q0-129-92-220l-367-369q-91-91-221-91t-222 91-91 222q0 128 91 220l369 368q91 92 220 92z" horiz-adv-x="993" />
<glyph glyph-name="attach" unicode="&#xe835;" d="m285 223q-52 0-91 38t-39 92q0 55 38 93l236 236q61 61 147 61t148-61 61-148-61-147l-369-369q-61-61-146-61-86 0-148 61t-61 148 61 147l42 41q0-61 37-110l-5-5q-30-30-30-73t30-74 74-30 74 30q61 61 183 184t184 185q30 30 30 73t-30 74q-31 30-74 30t-73-30l-237-236q-7-8-7-19t7-19 19-7 19 7l184 184q31-31 31-74 0-41-31-72l-110-111q-38-38-93-38z" horiz-adv-x="785" />
<glyph glyph-name="lock" unicode="&#xe836;" d="m298 116q0 68 67 68t68-68-68-67-67 67z m67 677q85 0 146-62t62-146l0-105 52 0q43 0 73-31t31-73l0-365q0-42-31-73t-73-31l-521 0q-44 0-74 31t-30 73l0 365q0 43 30 73t74 31l52 0 0 105q0 60 30 107t74 73q48 28 105 28z m0-104q-44 0-74-31t-31-73l0-156 209 0 0 156q0 44-31 74t-73 30z m260-678l0 365-521 0 0-365 521 0z" horiz-adv-x="729" />
<glyph glyph-name="lock-filled" unicode="&#xe837;" d="m625 480q43 0 73-31t31-73l0-365q0-42-31-73t-73-31l-521 0q-44 0-74 31t-30 73l0 365q0 43 30 73t74 31l52 0 0 105q0 86 62 147t147 61 147-61 61-147l0-105 52 0z m-260-431q28 0 48 20t20 47-20 48-48 20-47-20-20-48 20-47 47-20z m104 380l0 156q0 44-31 74t-73 30q-44 0-74-31t-31-73l0-156 209 0z" horiz-adv-x="729" />
<glyph glyph-name="lock-open" unicode="&#xe838;" d="m298 116q0 68 67 68t68-68-68-67-67 67z m-298 260q0 43 30 73t74 31l156 0 0-51 209 0 0 156q0 69 35 118t92 73q38 17 82 17 85 0 146-62t61-146l0-156q0-21-15-37t-36-16-37 16-16 37l0 156q0 44-30 74t-73 30q-44 0-75-31t-30-73l0-105 52 0q43 0 73-31t31-73l0-365q0-42-31-73t-73-31l-521 0q-44 0-74 31t-30 73l0 365z m625-365l0 365-521 0 0-365 521 0z" horiz-adv-x="885" />
<glyph glyph-name="lock-open-filled" unicode="&#xe839;" d="m678 793q86 0 146-61t61-147l0-156q0-21-15-37t-36-16-37 16-16 37l0 156q0 44-30 74t-73 30q-44 0-75-31t-30-73l0-105 52 0q43 0 73-31t31-73l0-365q0-42-31-73t-73-31l-521 0q-44 0-74 31t-30 73l0 365q0 43 30 73t74 31l156 0 0-51 209 0 0 156q0 86 61 147t148 61z m-313-744q28 0 48 20t20 47-20 48-48 20-47-20-20-48 20-47 47-20z" horiz-adv-x="885" />
<glyph glyph-name="pin-outline" unicode="&#xe83a;" d="m856 554q30-30 30-73t-30-75q-16-16-36-24-106-51-144-125-51-102-51-246 0-45-29-74t-75-30q-47 0-75 30l-167 169-279-199 199 279-169 168q-20 18-27 49t5 64q27 65 96 65 146 0 246 50l11 7q69 37 118 141 7 20 21 34 30 30 74 29t74-31z m-273-250q53 107 196 175l-205 211q-69-146-176-200l-13-6q-120-57-281-57l416-416q0 168 63 293z" horiz-adv-x="886" />
<glyph glyph-name="pin" unicode="&#xe83b;" d="m573 37q0-23-15-38t-37-15q-21 0-37 16l-169 169-315-236 236 315-168 169q-24 23-12 56 14 32 48 32 157 0 270 57 90 45 151 171 9 24 36 32t50-13l208-209q21-23 14-50t-32-36q-127-63-172-152-56-110-56-268z" horiz-adv-x="834" />
<glyph glyph-name="eye-outline" unicode="&#xe83c;" d="m469 559q-98 0-171-53-78-55-165-156 85-99 165-155 73-52 171-52t171 52q80 56 165 155-87 101-165 156-74 53-171 53z m0 104q132 0 231-72 60-42 119-103t89-99l30-39q-12-16-32-43t-83-91-123-107q-99-71-231-71-134 0-233 71-60 42-119 103t-88 99l-29 39q11 16 32 43t82 91 122 107q99 72 233 72z m0-260q21 0 37-16t15-37-15-36-37-15-37 15-16 36 16 37 37 16z m0-209q-65 0-111 45t-45 111 45 111 111 45 110-45 46-111-46-111-110-45z m0 261q-43 0-73-31t-31-74q0-42 30-73t74-31 74 31 30 73q0 44-31 74t-73 31z" horiz-adv-x="938" />
<glyph glyph-name="eye" unicode="&#xe83d;" d="m1034 380q22-29 0-59-7-11-34-46t-89-100-127-109q-112-80-261-80-150 0-262 80-64 45-127 109t-89 100-34 46q-22 29 0 59 6 11 33 46t90 99 127 108q113 82 262 82 148 0 261-82 64-45 127-108t90-99 33-46z m-511-213q75 0 128 54t53 129q0 76-53 129t-128 53q-76 0-129-53t-53-129q0-75 53-129t129-54z m104 183q0-43-30-74t-74-30-74 30-31 74 31 73 74 32q43 0 73-31t31-74z" horiz-adv-x="1045" />
<glyph glyph-name="tag" unicode="&#xe83e;" d="m365 792q-109 0-185-76t-76-184 76-184l159-155 286-286 365 365q-369 369-441 444-76 76-184 76z m0 105q151 0 259-107 109-113 440-444 30-31 30-74t-30-74l-365-365q-30-30-74-30t-74 30l-270 270q-8 7-18 15l-157 157q-106 106-106 257t106 258q108 107 259 107z m0-286q-32 0-56-23t-23-56 23-55 56-22 55 22 23 55-23 56-55 23z m0 51q54 0 92-38t38-92-38-92-92-38-92 38-38 92 38 92 92 38z" horiz-adv-x="1094" />
<glyph glyph-name="tags" unicode="&#xe83f;" d="m1011 502q30-32 30-74t-30-73l-56-56 5-5q30-31 29-74t-30-73l-364-366q-30-30-74-30t-73 30q-227 227-342 338-106 106-106 258 0 102 54 188-8 165 105 278 106 106 257 106 153 0 259-106z m-490-647l364 365-336 340q-76 77-184 77-109 0-185-77t-76-183 76-184q115-111 341-338z m102 779l258-261 57 56-337 340q-76 76-185 76-107 0-183-76-35-35-54-79 86 52 186 52 150 0 258-108z m-258-179q-32 0-56-23t-23-55 23-55 56-23 55 23 23 55-23 55-55 23z m0 52q54 0 92-39t38-91-38-92-92-38-92 38-38 92 38 91 92 39z" horiz-adv-x="1041" />
<glyph glyph-name="bookmark" unicode="&#xe840;" d="m573 846q65 0 110-46t46-111l0-730q0-51-25-78t-58-27q-42 0-80 38l-165 166q-15 15-37 15t-36-15l-165-166q-40-39-82-38t-65 39q-16 29-16 66l0 730q0 65 46 111t110 45l417 0z m-417-105q-21 0-37-15t-15-37l0-516 127 118q55 51 133 51t134-51l127-118 0 516q0 22-16 37t-36 15l-417 0z m319-609l150-150 0 120-162 150q-40 36-98 36t-97-36l-164-150 0-120 150 150q45 45 111 45 65 0 110-45z" horiz-adv-x="729" />
<glyph glyph-name="flag" unicode="&#xe841;" d="m640 693q25 25 57 11t32-47l0-418q0-21-15-36-80-80-193-80t-193 80q-47 46-110 50t-114-36l0-238q0-21-15-37t-36-15-37 15-16 37l0 678q0 21 15 36 80 80 193 80t193-80q50-50 120-50t119 50z m-312-74q-47 47-110 50t-114-36l0-119q67 33 145 20t134-67q48-49 117-56t125 28l0 122q-72-32-156-16t-141 74z m73-342q47-46 110-50t114 36l0 119q-54-25-104-25-100 0-175 72-48 49-117 56t-125-29l0-120q52 21 105 21 112 0 192-80z" horiz-adv-x="729" />
<glyph glyph-name="flag-filled" unicode="&#xe842;" d="m640 693q25 25 57 11t32-47l0-418q0-21-15-36-80-80-193-80t-193 80q-47 46-110 50t-114-36l0-238q0-21-15-37t-36-15-37 15-16 37l0 678q0 21 15 36 80 80 193 80t193-80q50-50 120-50t119 50z" horiz-adv-x="729" />
<glyph glyph-name="thumbs-up" unicode="&#xe843;" d="m811 470q38-13 58-51t15-77l-35-312q-6-39-32-70t-58-44q-5-1-26-9t-29-11-30-7-45-6-56-2q-83 0-174 26t-130 56q-1 1-3 2t-4 4-3 4q-46-40-103-40-65 0-110 45t-46 111l0 313q0 65 46 110t110 46q77 0 124-63 44 44 64 85t21 108q0 54 38 92t92 39 92-39 38-92q0-94-16-188 170-17 202-30z m-655-432q22 0 37 15t16 36l0 313q0 21-16 36t-37 16-37-16-15-36l0-313q0-21 15-36t37-15z m590 7l35 312q3 12-6 16-15 4-107 15t-119 14l-69-10 16 73q25 117 25 223 0 10-8 18t-18 8-18-8-8-18q0-54-11-98t-32-78-37-51-40-43q-36-36-36-69l0-260q0-30 18-44 24-17 99-38t143-22q26 0 45 2t35 4 23 6 23 8 24 9q6 3 14 13t9 18z" horiz-adv-x="885" />
<glyph glyph-name="thumbs-down" unicode="&#xe844;" d="m729 768q65 0 111-46t45-110l0-313q0-65-45-111t-111-45q-76 0-124 62-42-42-63-84t-21-109q0-54-38-92t-92-39-92 39-39 92q0 95 16 188-173 19-201 29-37 14-59 52t-15 78l35 311q7 38 32 70t58 44q5 1 26 9t29 11 30 8 45 6 57 1q82 0 174-26t131-55q2-2 5-5t3-5q47 40 103 40z m-313-755q0 54 11 97t33 78 36 52 40 43q37 36 37 69l0 260q0 11-7 25t-12 18q-24 18-99 39t-142 21q-27 0-46-1t-35-4-23-6-23-9-23-8q-7-3-15-13t-9-19l-34-311q-2-12 5-16 15-4 108-15t118-14l69 10-15-74q-25-122-25-222 0-10 8-18t17-8 18 8 8 18z m365 286l0 313q0 21-15 36t-37 15-36-15-15-36l0-313q0-21 15-37t36-15 37 15 15 37z" horiz-adv-x="885" />
<glyph glyph-name="download-outline" unicode="&#xe845;" d="m936 64l2-261q0-22-16-37t-37-15l-832 0q-22 0-37 15t-16 37q0 261 1 261 0 11 2 16l105 313q12 35 48 35l29 0-35 36q-46 46-46 110t46 110q31 31 76 41t87-3l0 71q0 65 45 110t111 46 110-46 46-110l0-71q41 13 86 3t77-41q46-46 46-110t-46-110l-35-36 28 0q37 0 49-35l105-313q1-5 1-16z m-712 546q-15-15-15-37t15-36l245-244 245 245q15 15 15 36t-15 36-37 15-37-15l-119-118 0 301q0 21-15 37t-37 15-37-15-16-37l0-301-118 118q-17 17-38 17-20 0-36-17z m-30-286l-86-260 723 0-87 260-96 0-179-177-179 177-96 0z m640-469l0 157-730 0 0-157 730 0z" horiz-adv-x="938" />
<glyph glyph-name="download" unicode="&#xe846;" d="m714 590q15-15 15-37t-15-36l-245-244-245 244q-15 15-15 36t15 37 36 15q23 0 38-15l118-120 0 349q0 21 16 37t37 16 37-16 15-37l0-349 119 120q14 14 38 14 22 0 36-14z m222-448l2-260q0-22-16-37t-37-16l-832 0q-22 0-37 16t-16 37q0 260 1 260 0 11 2 16l105 312q12 37 48 37l12 0q8-18 18-28l78-76-70 0-86-261 722 0-86 261-70 0 77 76q10 10 19 28l11 0q37 0 49-37l105-312q1-5 1-16z" horiz-adv-x="938" />
<glyph glyph-name="upload-outline" unicode="&#xe847;" d="m936 65l2-261q0-22-16-37t-37-15l-832 0q-22 0-37 15t-16 37l0 261q0 6 3 16l103 313q8 21 30 31-35 46-31 104t45 100l319 319 319-319q41-41 45-100t-32-104q22-10 29-31l105-313q1-5 1-16z m-712 490q-15-15-15-37t15-37 37-15 37 15l118 119 0-301q0-21 16-36t37-15 37 15 15 36l0 301 119-119q15-15 37-15t37 15 15 37-15 37l-245 245z m-30-230l-86-260 722 0-86 260-119 0 0-26q0-65-46-111t-110-45-111 45-45 111l0 26-119 0z m-90-469l730 0 0 157-730 0 0-157z" horiz-adv-x="938" />
<glyph glyph-name="upload" unicode="&#xe848;" d="m936 128l2-260q0-21-16-37t-37-15l-832 0q-22 0-37 15t-16 37q0 260 1 260 0 12 2 17l105 312q12 36 48 36l209 0 0-103-171 0-86-262 722 0-86 262-171 0 0 103 208 0q37 0 49-36l105-312q1-5 1-17z m-258 423q-24 0-38 14l-119 120 0-348q0-21-15-37t-37-15-37 15-16 37l0 348-118-120q-14-14-38-14-22 0-36 14-15 15-15 36t15 37l245 247 245-247q15-15 15-37t-15-36q-14-14-36-14z" horiz-adv-x="938" />
<glyph glyph-name="upload-cloud-outline" unicode="&#xe849;" d="m794 506q107 0 184-76t77-184-77-184-184-77l-573 0q-87 0-154 62t-67 147q0 66 48 122t96 79l0 8q0 128 97 220t228 92q102 0 189-59t118-151q4 0 9 1t9 0z m0-416q65 0 110 46t46 110-45 111-110 46q-17 0-42-8l-57-15-10 56q-13 75-71 125t-134 49q-86 0-147-61t-60-146q0-23 4-43l12-62-74 1q-40 0-69-31t-29-74q0-44 30-74t73-30l287 0 0 198-112-113q-7-7-18-7-17 0-24 16t5 29l156 156q6 6 18 7t20-7l156-156q12-13 5-29t-24-16q-11 0-19 7l-111 113 0-198 234 0z" horiz-adv-x="1055" />
<glyph glyph-name="upload-cloud" unicode="&#xe84a;" d="m781 506q108 0 184-76t76-184-76-184-184-77l-208 0 0 239 67-66q16-17 38-17 20 0 36 17 15 15 15 36t-15 36l-156 156q-14 14-37 15t-37-15l-156-156q-15-15-15-36t15-36q16-17 37-17 20 0 36 17l68 66 0-239-260 0q-86 0-148 61t-61 148q0 72 44 128t112 73l0 8q0 130 92 221t221 91q100 0 180-58t114-152q2 0 8 1t10 0z" horiz-adv-x="1041" />
<glyph glyph-name="reply-outline" unicode="&#xe84b;" d="m938-1q0-22-15-37t-38-15q-26 0-42 24-60 93-139 133t-183 48l0-75q0-42-31-73-30-30-74-30t-72 30l-329 322q-15 15-15 38t15 37l328 323q28 28 73 29t74-29q31-32 31-74l0-89q182-36 299-180t118-330l0-52z m-468 260q224-5 353-110-30 126-129 213t-231 103l-47 2 0 183-290-286 290-287 0 183q39-1 54-1z" horiz-adv-x="938" />
<glyph glyph-name="reply" unicode="&#xe84c;" d="m365 702q20 0 36-16t15-36l0-133q178-20 298-153t120-313l0-53q-80 122-183 163t-235 46l0-130q0-21-15-37t-36-15q-22 0-37 15l-328 323 328 324q15 15 37 15z" horiz-adv-x="834" />
<glyph glyph-name="forward-outline" unicode="&#xe84d;" d="m53-53q-23 0-38 16t-15 36l0 52q0 186 118 330t298 180l0 89q0 42 32 74 30 30 74 29t73-29l328-323q15-15 15-37t-15-38l-329-322q-29-29-73-30t-73 30q-32 31-32 73l0 75q-105-7-183-48t-138-133q-16-24-42-24z m416 312l52 1 0-183 290 287-290 286 0-183q-20 0-46-2-132-15-231-103t-129-213q129 105 354 110z" horiz-adv-x="938" />
<glyph glyph-name="forward" unicode="&#xe84e;" d="m416 650q0 21 16 36t37 16 36-15l329-324-329-323q-15-15-36-15t-37 15-16 37l0 130q-132-4-234-46t-182-163l0 53q0 180 119 313t297 153l0 133z" horiz-adv-x="834" />
<glyph glyph-name="code-outline" unicode="&#xe84f;" d="m378 38q-65 0-112 47l-266 266 266 267q44 44 111 44t111-44q46-46 46-110t-46-111l-45-46 45-45q46-46 46-111t-46-110-110-47z m-230 313l192-193q15-15 37-15t37 15 15 37-15 37l-119 119 119 120q15 15 15 37t-15 37-37 15-37-15z m663-313q-63 0-110 47t-46 110 46 111l47 45-47 46q-46 46-46 111t46 110q44 44 111 44t111-44l266-267-266-266q-47-47-112-47z m0 522q-21 0-36-15t-15-37 15-37l119-120-119-119q-15-15-15-37t15-37 37-15 37 15l192 193-192 194q-15 15-38 15z" horiz-adv-x="1189" />
<glyph glyph-name="code" unicode="&#xe850;" d="m304 89q-44 0-74 30l-230 230 230 230q31 32 74 32t74-32q31-31 31-73t-31-74l-83-83 83-82q31-31 31-74t-31-74q-30-30-74-30z m399 0q-44 0-74 30-31 32-31 74t31 74l82 82-82 83q-31 31-31 74t31 73q30 32 73 32t74-32l230-230-230-230q-30-30-73-30z" horiz-adv-x="1006" />
<glyph glyph-name="export-outline" unicode="&#xe851;" d="m975 465q15-15 15-37t-15-36q-66-67-141-143l0-315q0-21-16-37t-37-16l-728 0q-22 0-37 16t-16 37l0 729q0 21 16 37t37 15l416 0q0 43 32 73t79 31 83-34q120-127 312-320z m-387-320q256 263 276 283-176 179-275 285-4 2-9 2t-7-2l0-206-52 0q-47 0-86-17t-65-41-46-61-31-69-19-71q112 101 247 102l52 0 0-206q2-2 7-2 4 0 8 3z m-484-160l625 0 0 232q-61-62-103-107-17-20-46-20-25 0-42 15t-17 37l0 156q-178-4-312-208l0 25q0 60 9 119t31 119 57 105 90 73 125 28l0 51-417 0 0-625z" horiz-adv-x="990" />
<glyph glyph-name="export" unicode="&#xe852;" d="m209 141q0 60 9 119t31 119 57 105 90 73 125 28l0 156q0 22 17 37t42 15q28 0 46-19l312-320q-210-211-312-318-17-20-46-20-25 0-42 15t-17 37l0 156q-178-4-312-208l0 25z m-156-234q-22 0-37 16t-16 37l0 729q0 21 16 37t37 15l416 0 0-105-365 0 0-625 625 0 0 157q65 67 105 107l0-315q0-21-16-37t-37-16l-728 0z" horiz-adv-x="938" />
<glyph glyph-name="pencil" unicode="&#xe853;" d="m938 605q22-22 22-55t-22-55l-570-570q-22-21-60-38t-73-17l-235 0 0 234q0 35 17 74t38 60l570 570q23 22 55 22t55-22z m-794-426l65-64 431 433-64 63z m91-205q14 0 33 8-10 10-27 26t-50 50-56 56l-22 22q-9-21-9-32l0-78 52-52 79 0z m74 40l432 432-63 64-433-431z m469 469l67 67-165 165-67-66z" horiz-adv-x="960" />
<glyph glyph-name="pen" unicode="&#xe854;" d="m756 846q96 0 166-70t70-167q0-27-9-62 25-78-31-134l-234-235q-37-37-92-37l-4 0-113-113q-31-31-78-50-13-5-362-121-10-3-16-3-26 0-42 22t-8 46q116 349 121 361 19 48 52 80 413 413 415 414 71 69 165 69z m-382-778l-158 159q-3-8-15-44t-22-62l89-89q44 14 106 36z m-213-2q-9-25-27-78l79 26z m401 162q-15 23-13 50t22 48l192 192-142 143-372-373q-6-6-10-11l184-184q1 1 6 4t7 5z m316 259q18 17-1 35t-35 1l-235-234q-13-12-5-28t24-17q11 0 18 8z m-79 67q39 39 85 24 4 15 4 31 0 54-39 93-41 39-97 37t-95-42z" horiz-adv-x="992" />
<glyph glyph-name="feather" unicode="&#xe855;" d="m453 922q188-35 310-182t122-338q0-180-109-322t-281-188l0-64q0-21-16-36t-36-15-37 15-16 36l0 64q-172 46-281 188t-109 322q0 191 123 338t311 182l9 1z m42-921q125 43 204 150t82 240l-163-164q-8-8-19-8-16 0-24 15t5 29l196 196q-11 77-45 142l-113-114q-8-8-19-8-16 0-24 17t5 28l123 123q-97 136-260 170-164-34-260-170l122-123q13-12 5-28t-24-17q-11 0-18 8l-114 114q-34-65-45-142l196-196q13-14 5-29t-24-15q-11 0-18 8l-163 164q4-134 82-240t203-150l0 608q0 22 16 37t37 16 36-16 16-37l0-608z" horiz-adv-x="885" />
<glyph glyph-name="edit" unicode="&#xe856;" d="m966 671q24-23 24-55t-24-55l-185-185 0-468q0-22-15-37t-37-16l-676 0q-22 0-37 16t-16 37l0 676q0 21 16 37t37 15l468 0 185 185q24 24 55 24t55-24z m-523-486l327 328-112 112-328-327z m-134 69l4-86 88-4z m369-295l0 312-167-160q-20-20-63-33t-80-14l-159 0 0 159q0 41 11 82t31 61l165 167-312 0 0-574 574 0z m130 590l67 67-114 114-67-67z" horiz-adv-x="990" />
<glyph glyph-name="print" unicode="&#xe857;" d="m729 689q65 0 110-46t46-110l0-522q0-65-46-110t-110-46l-573 0q-65 0-110 46t-46 110l0 522q0 65 46 110t110 46l0 104q0 21 16 36t37 16l469 0q21 0 36-16t15-36l0-104z m-469 51l0-260 365 0 0 260-365 0z m-104-156q-21 0-37-15t-15-36l0-132q0-31 23-54t56-23l520 0q32 0 55 23t23 54l0 132q0 21-15 36t-37 15l0-156q0-22-15-37t-36-15l-469 0q-21 0-37 15t-16 37l0 156z m573-625q21 0 37 15t15 37l0 288q-36-28-78-28l-520 0q-43 0-79 28l0-288q0-21 15-37t37-15l573 0z m-181 625q25 0 25-25 0-26-25-26l-209 0q-11 0-19 7t-7 19q0 25 26 25l209 0z m77-469q11 0 19-7t7-19q0-25-26-25l-365 0q-25 0-25 25 0 26 25 26l365 0z m-77 574q25 0 25-26t-25-27l-209 0q-11 0-19 8t-7 19 7 18 19 8l209 0z" horiz-adv-x="885" />
<glyph glyph-name="comment" unicode="&#xe858;" d="m781 662l-625 0q-21 0-37-15t-15-36l0-365q0-21 15-37t37-16l157 0 0-8 8 8 460 0q22 0 37 16t16 37l0 365q0 21-16 36t-37 15z m0 105q65 0 111-46t46-110l0-365q0-65-46-111t-111-46l-416 0-156-156 0 156-53 0q-65 0-110 46t-46 111l0 365q0 65 46 110t110 46l625 0z" horiz-adv-x="938" />
<glyph glyph-name="chat" unicode="&#xe859;" d="m834 767q65 0 110-46t46-110l0-365q0-65-46-111t-110-46l-469 0-156-156 0 156-53 0q-65 0-110 46t-46 111l0 365q0 65 46 110t110 46l678 0z m51-521l0 365q0 21-15 37t-36 15l-678 0q-21 0-37-15t-15-37l0-365q0-21 15-36t37-15l678 0q21 0 36 15t15 36z m-625 79q-42 0-73 30t-31 73 31 74 73 30q44 0 74-31t31-73-31-73-74-30z m0 156q-21 0-36-16t-15-37 15-36 36-15 37 15 16 36-16 37-37 16z m235-156q-44 0-74 30t-31 73 31 73 74 31q43 0 73-30t31-74-31-73-73-30z m0 156q-21 0-37-16t-15-37 15-36 37-15 37 15 16 36-16 37-37 16z m234-156q-44 0-74 30t-30 73 30 74 74 30 74-31 31-73-31-73-74-30z m0 156q-21 0-36-16t-15-37 15-36 36-15 37 15 15 36-15 37-37 16z" horiz-adv-x="990" />
<glyph glyph-name="chat-alt" unicode="&#xe85a;" d="m1094 688q65 0 110-45t46-111l0-364q0-65-46-110t-110-46l-53 0 0-156-156 156-416 0q-65 0-111 46t-45 110l-157-156 0 156q-65 0-110 46t-46 111l0 363q0 65 46 111t110 46l625 0q65 0 111-46t46-111l156 0z m-938-416l209 0 0 234q0 54 38 92t92 39l339 0 0 51q0 22-16 37t-37 16l-625 0q-21 0-37-16t-15-37l0-363q0-22 15-37t37-16z m990-104l0 364q0 21-15 37t-37 16l-599 0q-32 0-56-24t-23-55l0-338q0-21 16-37t37-15l625 0q21 0 37 15t15 37z" horiz-adv-x="1250" />
<glyph glyph-name="bell" unicode="&#xe85b;" d="m819 100q24-26 10-57t-47-32l-164 0q-17-69-74-112t-127-44-127 44-73 112l-164 0q-32 0-47 33t10 57q3 4 10 12t21 37 27 63 22 93 10 123q0 101 58 182t150 113q-1 6-1 17 0 43 30 73t74 31 74-31 31-73q0-5-3-17 93-33 152-113t58-182q0-65 10-123t22-93 27-64 21-36 10-13z m-402 536q-86 0-147-60t-61-147q0-61-5-105l427 0q-7 54-7 105 0 86-61 147t-146 60z m0-676q61 0 90 51l-179 0q29-51 89-51z m-270 156l541 0q-31 65-49 157l-443 0q-18-92-49-157z" horiz-adv-x="834" />
<glyph glyph-name="attention" unicode="&#xe85c;" d="m514 701q-49 0-81-55l-308-513q-32-55-11-95t87-40l625 0q65 0 87 40t-12 95l-307 513q-33 55-80 55z m0 105q106 0 169-107l308-513q63-105 12-199-52-93-177-93l-625 0q-123 0-177 93-53 92 11 199l309 513q62 107 170 107z m77-690q-5-5-13-13t-35-19-57-11q-38 3-55 34t-1 77l21 63q15 45-12 60-10 4-23 2t-22-6l-11-5q5 5 13 13t37 19 56 11q39-3 55-34t1-78l-21-62q-16-45 11-60 10-4 23-2t23 6z m-146 351q0 69 69 69 67 0 67-69 0-68-67-68-69 0-69 68z" horiz-adv-x="1026" />
<glyph glyph-name="attention-filled" unicode="&#xe85d;" d="m991 186q64-107 12-199-52-93-177-93l-625 0q-126 0-177 93-53 92 11 199l309 513q62 107 170 107 106 0 169-107z m-477 362q-34 0-58-24t-23-57 23-57 58-23 57 23 23 57-23 57-57 24z m87-441q8 9 0 17t-16 4q-29-11-36-11-28 0-13 45l20 64q17 51-3 88t-64 40q-31 2-60-10t-41-23-15-14q-8-9 0-17t16-3q25 10 37 10 28 0 13-45l-21-64q-18-54 4-91t72-38q30 0 57 12t38 22 12 14z" horiz-adv-x="1026" />
<glyph glyph-name="warning-empty" unicode="&#xe85e;" d="m514 701q-49 0-81-55l-308-513q-32-55-11-95t87-40l625 0q65 0 87 40t-12 95l-307 513q-33 55-80 55z m0 105q106 0 169-107l308-513q63-105 12-199-52-93-177-93l-625 0q-123 0-177 93-53 92 11 199l309 513q62 107 170 107z m-69-652q0 69 69 69 67 0 67-69 0-67-67-67-69 0-69 67z m146 313q0-14-6-29l-71-179q-44 108-73 179-6 15-6 29 0 32 23 55t56 24 55-24 22-55z" horiz-adv-x="1026" />
<glyph glyph-name="warning" unicode="&#xe85f;" d="m991 186q64-107 12-199-52-93-177-93l-625 0q-126 0-177 93-53 92 11 199l309 513q62 107 170 107 106 0 169-107z m-477-112q34 0 57 23t23 57-23 58-57 24-58-24-23-58 23-57 58-23z m85 387q5 13 5 32 0 38-26 64t-64 27-65-27-26-64q0-17 6-34l72-178q5-9 13-9t11 9q74 178 74 180z" horiz-adv-x="1026" />
<glyph glyph-name="contacts" unicode="&#xe860;" d="m834 819q65 0 110-46t46-110l0-625q0-65-46-111t-110-46l-574 0q-65 0-111 46t-45 111l0 52-51 0q-22 0-37 15t-16 36 16 37 37 16l51 0 0 104-51 0q-22 0-37 15t-16 37 16 37 37 16l51 0 0 103-51 0q-22 0-37 16t-16 37 16 36 37 15l51 0 0 53q0 65 45 110t111 46l574 0z m-625-156l0-53 51 0 0 105q-21 0-36-15t-15-37z m0-156l0-104 51 0 0 104-51 0z m0-209l0-104 51 0 0 104-51 0z m0-260q0-21 15-37t36-16l0 105-51 0 0-52z m676 0l0 625q0 21-15 37t-36 15l-521 0 0-730 521 0q21 0 36 16t15 37z m-416 390q0 105 104 105 105 0 105-105 0-104-105-104-104 0-104 104z m104-148q56 0 93-22t37-53q0-15-38-26t-92-11q-59 0-95 11t-35 26q0 30 35 53t95 22z" horiz-adv-x="990" />
<glyph glyph-name="vcard" unicode="&#xe861;" d="m990-66l-834 0q-65 0-110 46t-46 110l0 520q0 65 46 111t110 46l834 0q65 0 111-46t45-111l0-520q0-65-45-110t-111-46z m-834 729q-21 0-37-16t-15-37l0-520q0-21 15-37t37-15l834 0q21 0 36 15t15 37l0 520q0 22-15 37t-36 16l-834 0z m313-469l-209 0q-21 0-36 16t-15 37 15 36 36 15l209 0q21 0 37-15t15-36-15-37-37-16z m0 209l-209 0q-21 0-36 15t-15 36 15 37 36 16l209 0q21 0 37-16t15-37-15-36-37-15z m209 25q0 105 103 105t104-105q0-104-104-104t-103 104z m103-148q57 0 93-22t37-53q0-15-37-26t-93-11q-58 0-94 11t-36 26q0 30 36 53t94 22z" horiz-adv-x="1146" />
<glyph glyph-name="address" unicode="&#xe862;" d="m933 533l-143-135-4-4q48-54 48-121 0-75-54-129t-129-54l-141 0-41-208-53 0-41 208-115 0q-69 0-117 49l-134 134 96 96q-47 21-76 66t-29 98q0 75 54 129t129 53l182 0 0 27q0 31 23 54t55 23 55-23 23-54l0-27 152 0q67 0 116-46z m-282-339q32 0 55 23t23 56-23 55-55 22l-391 0q-26 0-44-17l-60-60 60-60q19-19 44-19l391 0z m67 279l63 60-63 60q-19 19-45 19l-490 0q-33 0-56-24t-23-55q0-31 23-55t56-23l490 0q27 0 45 18z" horiz-adv-x="933" />
<glyph glyph-name="location-outline" unicode="&#xe863;" d="m416 741q-128 0-221-90-91-88-91-216 0-126 91-215l221-219 223 219q90 88 90 215 0 129-90 216-93 90-223 90z m0 104q174 0 295-120t122-290-122-290l-295-290-293 290q-123 120-123 290t123 290 293 120z m0-286q-52 0-91-39t-39-92 39-92q38-37 91-37 55 0 93 37 39 39 39 92t-39 92-93 39z m0 52q75 0 129-53t54-129-54-129-129-54-128 54-54 129 54 129 128 53z" horiz-adv-x="833" />
<glyph glyph-name="location" unicode="&#xe864;" d="m711 725q122-120 122-290t-122-290l-295-290-293 290q-123 120-123 290t123 290 295 120 293-120z m-295-426q55 0 93 37 39 39 39 92t-39 92-93 39q-52 0-91-39t-39-92 39-92q38-37 91-37z" horiz-adv-x="833" />
<glyph glyph-name="map" unicode="&#xe865;" d="m53-93q-23 0-38 16t-15 36l0 521q0 21 15 36l235 235q14 14 34 15t35-11l224-179 202 201q25 25 57 10t32-47l0-520q0-21-16-38l-234-233q-14-14-35-15t-35 11l-224 179-201-202q-15-15-36-15z m51 178q152 150 156 152l0 378-156-156 0-374z m215 149l202-162 0 389-208 165 0-389q1-1 3-2t3-1z m410 7l0 374q-153-151-156-154l0-376z" horiz-adv-x="834" />
<glyph glyph-name="direction-outline" unicode="&#xe866;" d="m416-47q-60 0-86 77l-64 189-188 63q-74 23-78 83-4 58 68 90l592 278q41 19 73 12t50-32q25-41-3-100l-276-593q-31-67-88-67z m-280 420l213-71 71-214 249 534z" horiz-adv-x="795" />
<glyph glyph-name="direction" unicode="&#xe867;" d="m328 47l-71 214-214 71q-27 9-37 23t-2 28 34 27l593 276q40 17 54 3t-3-54l-278-593q-11-26-25-34t-28 2-23 37z" horiz-adv-x="691" />
<glyph glyph-name="compass" unicode="&#xe868;" d="m469 715q-151 0-258-107t-107-258 107-258 258-107 258 107 107 258-107 258-258 107z m0 104q194 0 331-137t138-332-138-331-331-138-331 138-138 331 138 332 331 137z m192-244q14 4 25-7t8-25l-90-310q-4-14-18-18l-310-90-6 0q-12 0-21 10t-5 23l90 310q4 14 17 17z m-353-386l251 71-180 180z" horiz-adv-x="938" />
<glyph glyph-name="trash" unicode="&#xe869;" d="m729 636q21 0 37-15t15-36-15-37-37-15l0-417q0-86-61-147t-147-62l-261 0q-86 0-147 62t-60 147l0 417q-22 0-37 15t-16 37 16 36 37 15l51 0 0 53q0 42 30 73t75 31l364 0q43 0 74-31t31-73l0-53 51 0z m-520 53l0-53 364 0 0 53-364 0z m416-573l0 417-469 0 0-417q0-43 31-74t73-31l261 0q43 0 73 31t31 74z m-390 338q10 0 18-8t7-17l0-313q0-10-7-18t-18-8-18 8-8 18l0 313q0 10 8 17t18 8z m104 0q10 0 18-8t8-17l0-313q0-10-8-18t-18-8-18 8-8 18l0 313q0 10 8 17t18 8z m104 0q10 0 18-8t8-17l0-313q0-10-8-18t-18-8-19 8-8 18l0 313q0 10 8 17t19 8z m105 0q10 0 17-8t8-17l0-313q0-10-8-18t-17-8-19 8-8 18l0 313q0 10 8 17t19 8z" horiz-adv-x="781" />
<glyph glyph-name="doc" unicode="&#xe86a;" d="m818 595q16-16 16-36l0-521q0-65-46-111t-110-46l-522 0q-65 0-110 46t-46 111l0 625q0 65 46 110t110 46l417 0q22 0 37-15z m-110-36l-135 134 0-56q0-32 23-55t55-23l57 0z m-30-574q21 0 36 16t15 37l0 469-78 0q-53 0-92 38t-38 92l0 78-365 0q-21 0-37-15t-15-37l0-625q0-21 15-37t37-16l522 0z" horiz-adv-x="834" />
<glyph glyph-name="doc-text" unicode="&#xe86b;" d="m678-119l-522 0q-65 0-110 46t-46 111l0 625q0 65 46 110t110 46l522 0q65 0 110-46t46-110l0-625q0-65-46-111t-110-46z m-522 834q-21 0-37-15t-15-37l0-625q0-21 15-37t37-16l522 0q21 0 36 16t15 37l0 625q0 21-15 37t-36 15l-522 0z m469-312l-416 0q-26 0-26 25 0 11 7 19t19 7l416 0q11 0 19-7t7-19q0-25-26-25z m0 156l-416 0q-11 0-19 8t-7 18q0 25 26 25l416 0q26 0 26-25 0-11-7-18t-19-8z m0-312l-416 0q-11 0-19 7t-7 19q0 25 26 25l416 0q26 0 26-25 0-11-7-19t-19-7z m0-157l-416 0q-26 0-26 25 0 12 7 19t19 8l416 0q11 0 19-8t7-19q0-25-26-25z" horiz-adv-x="834" />
<glyph glyph-name="doc-add" unicode="&#xe86c;" d="m573 350q21 0 36-15t16-37-16-36-36-15l-104 0 0-105q0-22-16-37t-37-15-36 15-15 37l0 105-105 0q-21 0-36 15t-15 36 15 37 36 15l105 0 0 104q0 21 15 37t36 16 37-16 16-37l0-104 104 0z m245 245q16-16 16-36l0-521q0-65-46-111t-110-46l-522 0q-65 0-110 46t-46 111l0 625q0 65 46 110t110 46l417 0q22 0 37-15z m-110-36l-135 134 0-56q0-32 23-55t55-23l57 0z m-30-574q21 0 36 16t15 37l0 469-78 0q-53 0-92 38t-38 92l0 78-365 0q-21 0-37-15t-15-37l0-625q0-21 15-37t37-16l522 0z" horiz-adv-x="834" />
<glyph glyph-name="doc-remove" unicode="&#xe86d;" d="m818 595q16-16 16-36l0-521q0-65-46-111t-110-46l-522 0q-65 0-110 46t-46 111l0 625q0 65 46 110t110 46l417 0q22 0 37-15z m-110-36l-135 134 0-56q0-32 23-55t55-23l57 0z m-30-574q21 0 36 16t15 37l0 469-78 0q-53 0-92 38t-38 92l0 78-365 0q-21 0-37-15t-15-37l0-625q0-21 15-37t37-16l522 0z m-105 262l-313 0q-21 0-36 15t-15 36 15 37 36 15l313 0q21 0 36-15t16-37-16-36-36-15z" horiz-adv-x="834" />
<glyph glyph-name="news" unicode="&#xe86e;" d="m1041 767q44 0 75-31t30-73l0-625q0-43-30-73t-75-31l-937 0q-44 0-74 31t-30 73l0 625q0 42 30 73t74 30l937 0z m-937-104l0-625 417 0 0 625-417 0z m937-625l0 625-468 0 0-625 468 0z m-51 235l0-158q0-10-8-17t-18-8l-53 0q-10 0-18 8t-8 17l0 158q0 10 8 17t18 8l53 0q10 0 18-8t8-17z m-156 312l0-261q0-10-8-18t-18-8l-157 0q-10 0-18 8t-8 18l0 261q0 10 8 18t18 7l157 0q10 0 18-7t8-18z m77-131q-10 0-18 8t-8 18 8 18 18 9l53 0q10 0 18-9t8-18-8-18-18-8l-53 0z m0-104q-10 0-18 8t-8 19 8 18 18 8l53 0q10 0 18-8t8-18-8-19-18-8l-53 0z m-260-156q-10 0-18 8t-8 18 8 18 18 9l157 0q10 0 18-9t8-18-8-18-18-8l-157 0z m157-52q10 0 18-9t8-18-8-17-18-8l-157 0q-10 0-18 8t-8 17 8 18 18 9l157 0z m103 417q-10 0-18 8t-8 18 8 18 18 7l53 0q10 0 18-7t8-18-8-18-18-8l-53 0z m-442 26l0-157q0-10-8-18t-18-7l-260 0q-10 0-19 7t-8 18l0 157q0 10 8 18t19 7l260 0q10 0 18-7t8-18z m-26-338q10 0 18-9t8-18-8-18-18-8l-260 0q-10 0-19 8t-8 18 8 18 19 9l260 0z m0 103q10 0 18-8t8-18-8-18-18-8l-260 0q-10 0-19 8t-8 18 8 18 19 8l260 0z m0-208q10 0 18-9t8-18-8-17-18-8l-260 0q-10 0-19 8t-8 17 8 18 19 9l260 0z" horiz-adv-x="1146" />
<glyph glyph-name="folder" unicode="&#xe86f;" d="m781 663q65 0 111-46t46-110l0-417q0-65-46-110t-111-46l-625 0q-65 0-110 46t-46 110l0 520q0 65 46 111t110 46l209 0q43 0 73-31t31-73l312 0z m-625 0q-21 0-37-16t-15-37l0-103 730 0q0 21-16 36t-37 16l-312 0q-44 0-74 31t-30 73l-209 0z m625-625q22 0 37 15t16 37l0 364-730 0 0-364q0-21 15-37t37-15l625 0z" horiz-adv-x="938" />
<glyph glyph-name="folder-add" unicode="&#xe870;" d="m781 663q65 0 111-46t46-110l0-417q0-65-46-110t-111-46l-625 0q-65 0-110 46t-46 110l0 520q0 65 46 111t110 46l209 0q43 0 73-31t31-73l312 0z m0-625q22 0 37 15t16 37l0 364-209 0q-10 0-18 8t-8 18 8 18 18 9l209 0q0 21-16 36t-37 16l-312 0q-44 0-74 31t-30 73l-209 0q-21 0-37-16t-15-37l0-103 209 0q10 0 18-9t8-18-8-18-18-8l-209 0 0-364q0-21 15-37t37-15l625 0z m-156 312q21 0 37-15t16-37-16-36-37-15l-104 0 0-105q0-22-15-37t-37-15-37 15-16 37l0 105-103 0q-22 0-37 15t-16 36 16 37 37 15l103 0 0 104q0 21 16 37t37 16 37-16 15-37l0-104 104 0z" horiz-adv-x="938" />
<glyph glyph-name="folder-delete" unicode="&#xe871;" d="m781 663q65 0 111-46t46-110l0-417q0-65-46-110t-111-46l-625 0q-65 0-110 46t-46 110l0 520q0 65 46 111t110 46l209 0q43 0 73-31t31-73l312 0z m-625 0q-21 0-37-16t-15-37l0-103 730 0q0 21-16 36t-37 16l-312 0q-44 0-74 31t-30 73l-209 0z m625-625q22 0 37 15t16 37l0 364-730 0 0-364q0-21 15-37t37-15l625 0z m-156 209l-312 0q-22 0-37 15t-16 36 16 37 37 15l312 0q21 0 37-15t16-37-16-36-37-15z" horiz-adv-x="938" />
<glyph glyph-name="archive" unicode="&#xe872;" d="m573 376q11 0 18-8t8-19-8-18-18-8l-157 0q-11 0-18 8t-8 18 8 19 18 8l157 0z m365 365q21 0 36-16t16-37-16-37-36-15l-885 0q-22 0-37 15t-16 37 16 37 37 16l885 0z m-104-157q21 0 36-15t15-37l0-416q0-65-46-111t-110-46l-469 0q-65 0-111 46t-45 111l0 416q0 21 15 37t37 15l678 0z m-105-521q21 0 37 16t15 37l0 363-572 0 0-363q0-22 15-37t36-16l469 0z" horiz-adv-x="990" />
<glyph glyph-name="box" unicode="&#xe873;" d="m678 793q65 0 110-46t46-111l0-572q0-65-46-111t-110-46l-522 0q-65 0-110 46t-46 111l0 572q0 65 46 111t110 45l522 0z m51-729l0 379q-24-14-51-14l-79 0q0-75-54-129t-129-54-128 54-53 129l-79 0q-28 0-52 14l0-379q0-21 15-37t37-16l522 0q21 0 36 16t15 37z m-443 365q0-54 38-92t92-38 93 38 39 92l-262 0z m443 104l0 103q0 22-15 37t-36 16l-522 0q-21 0-37-16t-15-37l0-103q0-22 15-37t37-16l522 0q21 0 36 16t15 37z" horiz-adv-x="834" />
<glyph glyph-name="rss-outline" unicode="&#xe874;" d="m156 767q138 0 263-54t217-144 144-216 54-263q0-65-46-111t-110-46l-469 0q-86 0-148 62t-61 147l0 469q0 65 46 110t110 46z m53-730q42 0 73 31t31 74q0 43-30 73t-74 31-74-31-30-73q0-44 31-74t73-31z m235 0q32 0 55 23t22 56q0 140-99 239t-239 100q-33 0-55-24t-23-55 23-55 55-23q75 0 128-53t54-129q0-33 23-56t56-23z m207 0q33 0 56 23t23 56q0 147-74 274t-199 199-274 73q-33 0-55-22t-23-55 23-56 55-23q161 0 276-115t115-275q0-33 22-56t55-23z" horiz-adv-x="834" />
<glyph glyph-name="rss" unicode="&#xe875;" d="m104 142q44 0 74-31t31-73-31-73-74-31-74 31-30 73 30 73 74 31z m0 625q197 0 365-98t267-266 98-365q0-43-31-73t-74-31-74 31-30 73q0 215-152 368t-369 153q-44 0-74 31t-30 73 30 73 74 31z m0-313q172 0 295-122t122-294q0-43-30-73t-75-31-73 31-30 73q0 86-62 147t-147 62q-44 0-74 30t-30 73 30 73 74 31z" horiz-adv-x="834" />
<glyph glyph-name="phone-outline" unicode="&#xe876;" d="m964 733q31-31 52-74t27-109-12-137-74-163-149-185q-237-237-454-237-134 0-215 82l-93 92q-46 46-46 111t46 110l83 83q46 46 110 46t110-46l72-71 218 216-73 72q-46 47-46 111t46 111l83 82q45 45 111 45 65 0 110-45z m-324-62q-15-15-15-37t15-37l56-56 157 156-57 56q-15 15-36 15-22 0-37-15z m-521-595l57-56 157 156-58 56q-15 15-36 15t-36-15l-84-82q-15-15-15-37t15-37z m615 62q81 82 130 159t64 133 11 105-17 78-32 47l-156-157 15-15q15-15 15-37t-15-36l-291-292q-15-15-37-15-22 0-37 15l-15 17-156-158q50-50 141-50 174 0 380 206z" horiz-adv-x="1044" />
<glyph glyph-name="phone" unicode="&#xe877;" d="m566 555l-22 23q-23 22-23 55t23 55l82 84q23 22 55 22t55-22l24-24z m-350-305l23-22-193-194-23 23q-23 22-23 56 0 32 23 55l82 82q23 23 56 23t55-23z m614 428q10-10 23-28t26-70 6-113-60-154-151-193q-214-213-399-213-101 0-159 57l-18 18 193 193 34-33q18-18 36 0l292 291q7 7 7 17 0 12-7 19l-34 34 192 194z" horiz-adv-x="888" />
<glyph glyph-name="menu-outline" unicode="&#xe878;" d="m885 38l-729 0q-21 0-37-16t-15-37 15-36 37-15l729 0q21 0 37 15t16 36-16 37-37 16z m0 104q65 0 111-46t45-111-45-110-111-46l-729 0q-65 0-110 46t-46 110 46 111 110 46l729 0z m0 261l-729 0q-21 0-37-16t-15-37 15-37 37-15l729 0q21 0 37 15t16 37-16 37-37 16z m0 104q65 0 111-46t45-111-45-110-111-46l-729 0q-65 0-110 46t-46 110 46 111 110 46l729 0z m0 260l-729 0q-21 0-37-15t-15-37 15-37 37-15l729 0q21 0 37 15t16 37-16 37-37 15z m0 105q65 0 111-46t45-111-45-110-111-46l-729 0q-65 0-110 46t-46 110 46 111 110 46l729 0z" horiz-adv-x="1041" />
<glyph glyph-name="menu" unicode="&#xe879;" d="m834 90q42 0 73-30t31-75q0-42-30-73t-74-31l-730 0q-44 0-74 31t-30 73q0 44 31 75t73 30l730 0z m0 364q44 0 74-31t30-73-30-73-74-30l-730 0q-44 0-74 30t-30 73 30 73 74 31l730 0z m0 365q44 0 74-31t30-73q0-43-31-74t-73-31l-730 0q-43 0-73 31t-31 74q0 43 30 73t74 31l730 0z" horiz-adv-x="938" />
<glyph glyph-name="cog-outline" unicode="&#xe87a;" d="m560 741l-156 0-45-178-176 51-79-136 133-128-133-127 79-135 176 50 45-178 156 0 44 178 178-50 77 135-132 127 132 128-77 136-178-51z m0 104q35 0 63-22t37-57l19-73 74 21q15 4 29 4 60 0 90-53l77-135q18-31 13-66t-30-60l-55-54 55-52q25-25 30-60t-13-67l-77-136q-30-51-90-51-14 0-29 3l-74 21-17-74q-9-35-37-57t-65-22l-156 0q-36 0-64 22t-37 57l-19 74-72-22q-15-4-29-4-60 0-90 53l-79 135q-18 31-13 67t31 61l55 52-55 53q-25 25-30 60t12 67l79 135q30 53 90 53 14 0 29-4l72-21 19 73q9 35 37 57t64 22l156 0z m-78-391q-44 0-74-30t-30-74 30-74 74-30 74 31 31 73-31 73-74 31z m0 52q65 0 110-45t46-111-46-111-110-45-111 45-46 111 46 111 111 45z" horiz-adv-x="963" />
<glyph glyph-name="cog" unicode="&#xe87b;" d="m250 87q-5 20-24 31t-40 5l-76-22q-21-7-44 3t-32 28l-27 45q-10 19-6 42t19 39l56 55q15 15 15 36t-15 37l-56 55q-16 15-19 38t8 43l25 46q10 19 32 28t44 2l76-21q21-6 40 5t24 31l19 76q6 22 25 37t40 15l51 0q21 0 40-15t25-37l20-76q6-21 24-31t38-5l77 21q21 6 43-2t33-28l26-46q10-19 6-43t-18-38l-57-55q-16-15-15-37t15-36l57-55q15-15 18-39t-6-42l-26-45q-10-19-33-28t-43-3l-77 22q-20 5-38-5t-24-31l-20-78q-6-21-25-35t-40-15l-51 0q-22 0-40 15t-25 35z m110 366q-44 0-75-31t-30-73 30-73 75-30q42 0 73 30t31 73-31 74-73 30z" horiz-adv-x="718" />
<glyph glyph-name="wrench-outline" unicode="&#xe87c;" d="m209 115q0 53 51 53 53 0 53-53 0-51-53-51-51 0-51 51z m105 371q0 3-1 10t0 10q0 140 98 239 100 100 240 100 109 0 200-66 15-15 15-36t-15-37q15 15 37 15t36-15q66-91 66-200 0-140-100-240-99-98-239-98-3 0-10 0t-10 1q-137-180-172-221-76-93-199-93-107 0-184 76t-76 184q0 118 93 199 107 91 221 172z m-210-371q0-64 46-110t110-46q73 0 119 56 51 59 120 151 65 87 90 115 36-10 62-10 97 0 165 70t69 165q0 28-10 65l-146-143-130 26-26 130 148 145q-37 11-70 11-96 0-165-69t-70-165q0-26 10-62-33-28-116-90-75-56-150-119-56-49-56-120z m750 508q-29 50-83 82l-141-139 14-67 69-15z" horiz-adv-x="990" />
<glyph glyph-name="wrench" unicode="&#xe87d;" d="m804 597q30-9 30-90 0-108-77-184t-184-76q-28 0-53 5-31-39-90-117t-109-136q-55-65-138-65-75 0-129 53t-54 128q0 84 64 140 59 50 137 108t118 91q-6 31-6 53 0 107 76 183t184 77q38 0 77-13 14-4 18-18t-7-26l-138-135 20-99 100-20 136 133q11 11 25 8z m-621-533q21 0 36 15t16 36-16 37-36 16-37-16-16-37 16-36 37-15z" horiz-adv-x="834" />
<glyph glyph-name="basket" unicode="&#xe87e;" d="m950 715q23 0 39-18t14-42l-53-365q-2-18-17-31t-34-12l-590 0 9-53 528 0q22 0 37-16t16-36-16-37-37-15l-572 0q-20 0-35 13t-16 30l-98 582-72 0q-22 0-37 15t-16 37 16 36 37 16l116 0q19 0 34-12t17-32l11-60 719 0z m-60-105l-200 0 0-103 185 0z m-252 0l-157 0 0-103 157 0 0 103z m0-156l-157 0 0-104 157 0 0 104z m-208 156l-182 0 18-105q3 2 8 2l156 0 0 103z m-156-156l17-104 139 0 0 104-156 0z m416-104l164 0 14 104-178 0 0-104z m-416-390q0 78 77 78 79 0 79-78 0-78-79-78-77 0-77 78z m469 0q0 78 77 78 79 0 79-78 0-78-79-78-77 0-77 78z" horiz-adv-x="1003" />
<glyph glyph-name="calendar-outlilne" unicode="&#xe87f;" d="m834 653q46-16 75-56t29-90l0-469q0-65-46-111t-111-46l-625 0q-65 0-110 46t-46 111l0 469q0 50 29 90t75 56l0 10q0 65 45 110t111 46 111-46 45-110l105 0q0 65 46 110t111 46 110-46 46-110l0-10z m-209 10l0-104q0-21 16-37t37-15 36 15 15 37l0 104q0 21-15 37t-36 15-37-15-16-37z m-416 0l0-104q0-21 15-37t36-15 37 15 16 37l0 104q0 21-16 37t-37 15-36-15-15-37z m625-625l0 312-730 0 0-312q0-21 15-37t37-16l625 0q22 0 37 16t16 37z m0 365l0 104q0 21-16 36t-37 16q0-44-30-74t-73-31-74 31-31 74l-208 0q0-44-31-74t-74-31-73 31-31 74q-21 0-37-16t-15-36l0-104 730 0z" horiz-adv-x="938" />
<glyph glyph-name="calendar" unicode="&#xe880;" d="m834 653q46-16 75-56t29-90l0-469q0-65-46-111t-111-46l-625 0q-65 0-110 46t-46 111l0 469q0 50 29 90t75 56l0 10q0 65 45 110t111 46 111-46 45-110l105 0q0 65 46 110t111 46 110-46 46-110l0-10z m-209 10l0-104q0-21 16-37t37-15 36 15 15 37l0 104q0 21-15 37t-36 15-37-15-16-37z m-416 0l0-104q0-21 15-37t36-15 37 15 16 37l0 104q0 21-16 37t-37 15-36-15-15-37z m625-625l0 312-730 0 0-312q0-21 15-37t37-16l625 0q22 0 37 16t16 37z" horiz-adv-x="938" />
<glyph glyph-name="mic-outline" unicode="&#xe881;" d="m365 142q-86 0-147 61t-62 147l0 313q0 86 62 147t147 62 147-62 61-147l0-313q0-86-61-147t-147-61z m0 625q-44 0-74-31t-31-73l0-313q0-42 31-73t74-31q43 0 73 31t31 73l0 313q0 42-31 73t-73 31z m364-417q0-136-90-238t-223-122l0-56 157 0q21 0 36-16t16-37-16-36-36-16l-417 0q-21 0-37 16t-15 36 15 37 37 16l157 0 0 56q-134 19-224 122t-89 238l0 104q0 21 16 37t37 16 36-16 15-37l0-104q0-107 77-183t184-77 184 77 76 183l0 104q0 21 16 37t37 16 36-16 15-37l0-104z" horiz-adv-x="729" />
<glyph glyph-name="mic" unicode="&#xe882;" d="m365 142q-86 0-147 61t-62 147l0 313q0 86 62 147t147 62 147-62 61-147l0-313q0-86-61-147t-147-61z m364 208q0-136-90-238t-223-122l0-56 157 0q21 0 36-16t16-37-16-36-36-16l-417 0q-21 0-37 16t-15 36 15 37 37 16l157 0 0 56q-134 19-224 122t-89 238l0 104q0 21 16 37t37 16 36-16 15-37l0-104q0-107 77-183t184-77 184 77 76 183l0 104q0 21 16 37t37 16 36-16 15-37l0-104z" horiz-adv-x="729" />
<glyph glyph-name="volume-off" unicode="&#xe883;" d="m766 730q15-15 15-36t-15-36l-141-142 0-447q0-54-29-84t-68-30q-35 0-70 24l-139 92q-36 25-99 40l-131-131q-15-15-36-15-23 0-38 15t-15 37 15 37l80 80q-42 17-69 57t-26 87l0 103q0 65 46 111t110 46q37 0 85 14t78 34l139 93q35 24 70 24 58 0 83-53l82 80q15 15 36 15t37-15z m-251-137l-99-65 0-110 105 105 0 67q0 1-1 4l0 2q-2-2-5-3z m-411-212l0-103q0-22 15-37t37-16q27 0 62-6l147 147 0 127q-44-25-103-42t-106-17q-21 0-37-16t-15-37z m172-177q50-15 89-39l0 128z m244-141l0 2q1 3 1 4l0 380-105-104 0-214 99-65q3-1 5-3z" horiz-adv-x="781" />
<glyph glyph-name="volume-low" unicode="&#xe884;" d="m528 724q38 0 68-29t29-83l0-522q0-53-29-83t-68-31q-35 0-70 24l-139 93q-29 20-78 35t-85 15q-65 0-110 45t-46 111l0 104q0 65 46 110t110 46q37 0 85 14t78 35l139 92q35 24 70 24z m-163-537l0 327q-44-25-103-42t-106-17q-21 0-37-15t-15-37l0-104q0-21 15-37t37-15q47 0 106-18t103-42z m156-97l0 522q0 1-1 3l0 3q-2-3-5-4l-99-65 0-396 99-65q3-1 5-4l0 3q1 2 1 3z" horiz-adv-x="625" />
<glyph glyph-name="volume-middle" unicode="&#xe885;" d="m528 724q38 0 68-29t29-83l0-522q0-53-29-83t-68-31q-35 0-70 24l-139 93q-29 20-78 35t-85 15q-65 0-110 45t-46 111l0 104q0 65 46 110t110 46q37 0 85 14t78 35l139 92q35 24 70 24z m-372-477q47 0 106-18t103-42l0 327q-44-25-103-42t-106-17q-21 0-37-15t-15-37l0-104q0-21 15-37t37-15z m365-157l0 522q0 1-1 3l0 3q-2-3-5-4l-99-65 0-396 99-65q3-1 5-4l0 3q1 2 1 3z m172 402q15 15 36 15t37-15q59-59 59-142 0-81-59-140-16-16-37-16-20 0-36 16-15 15-15 37t15 36q27 27 27 67t-27 68q-15 15-15 37t15 37z" horiz-adv-x="825" />
<glyph glyph-name="volume-high" unicode="&#xe886;" d="m766 492q59-59 59-142 0-81-59-140-16-16-37-16-20 0-36 16-15 15-15 37t15 36q27 27 27 67t-27 68q-15 15-15 37t15 37 36 15 37-15z m104 103q101-101 101-243 0-145-101-247-15-15-36-15-23 0-38 15t-15 37 15 37q70 70 70 172t-70 172q-15 15-15 36t15 36 37 15 37-15z m104 105q145-142 145-348 0-205-145-350-15-15-36-15t-37 15-15 36 15 37q114 114 114 277 0 161-114 275-15 15-15 36t14 37 37 15 37-15z m-446 24q38 0 68-29t29-83l0-522q0-53-29-83t-68-31q-35 0-70 24l-139 93q-29 20-78 35t-85 15q-65 0-110 45t-46 111l0 104q0 65 46 110t110 46q37 0 85 14t78 35l139 92q35 24 70 24z m-372-477q47 0 106-18t103-42l0 327q-44-25-103-42t-106-17q-21 0-37-15t-15-37l0-104q0-21 15-37t37-15z m365-157l0 522q0 1-1 3l0 3q-2-3-5-4l-99-65 0-396 99-65q3-1 5-4l0 3q1 2 1 3z" horiz-adv-x="1119" />
<glyph glyph-name="headphones" unicode="&#xe887;" d="m938 350l0-135q0-1-1-3t-1-3q2-12 2-41l0-104q0-75-54-129t-129-54-129 54-53 129l0 104q0 59 28 105t75 66q-3 83-63 141t-144 58-144-58-64-141q47-19 75-66t29-105l0-104q0-75-54-129t-128-53-129 53-54 129l0 104q0 29 1 41 0 1 0 3t-1 3l0 135q0 194 138 332t331 137 331-137 138-332z m-834 0l0-51 52 0q0 51 2 51 7 99 67 174l-46 46q-75-98-75-220z m156-286l0 104q0 34-16 56t-35 23l-99 0q-6-44-6-79l0-104q0-31 23-54t56-24 55 24 22 54z m386 469q14 14 40 39t39 38l33 33q-120 120-289 120t-289-120l93-93 18-17q73 72 178 72t177-72z m188-469l0 104q0 35-6 79l-99 0q-20 0-36-23t-15-56l0-104q0-31 22-54t55-23 56 23 23 54z m0 235l0 51q0 122-75 220l-46-46q61-77 68-174l0-51 53 0z" horiz-adv-x="938" />
<glyph glyph-name="clock" unicode="&#xe888;" d="m678 350q0-21-16-36t-37-15l-156 0q-21 0-37 15t-16 36 16 37 37 16l156 0q21 0 37-16t16-37z m-209 365q-151 0-258-107t-107-258 107-257 258-106 258 106 107 257-107 258-258 107z m0 104q194 0 331-137t138-332-138-331-331-138-331 138-138 331 138 332 331 137z m52-312l0-157q0-21-15-36t-37-15-37 15-16 36l0 157q0 21 16 36t37 16 37-16 15-36z m-52 105q-108 0-184-77t-76-185 76-183 184-77 184 77 76 183-76 185-184 77z m0 51q129 0 220-91t92-222-92-221-220-91-221 91-92 221 92 222 221 91z" horiz-adv-x="938" />
<glyph glyph-name="wristwatch" unicode="&#xe889;" d="m365 298q-21 0-37 15t-15 37l0 104q0 21 15 37t37 16 36-16 15-37l0-51 53 0q21 0 37-16t15-37-15-37-37-15l-104 0z m260 307q104-106 104-255t-104-255l0-110q0-65-46-110t-110-46l-209 0q-65 0-111 46t-45 110l0 110q-104 107-104 255t104 255l0 110q0 65 45 111t111 46l209 0q65 0 110-46t46-111l0-110z m-416 110l0-95q75 43 156 43t156-43l0 95q0 22-15 37t-37 15l-209 0q-21 0-36-15t-15-37z m312-730l0 95q-75-42-156-42t-156 42l0-95q0-21 15-36t36-15l209 0q21 0 37 15t15 36z m-156 105q108 0 184 77t76 183-76 184-184 76-184-76-77-184 77-183 184-77z" horiz-adv-x="729" />
<glyph glyph-name="stopwatch" unicode="&#xe88a;" d="m855 537q83-117 83-265 0-194-138-331t-331-138-331 138-138 331q0 180 120 313t298 152l0 1-2 3 0 51-51 0q-21 0-37 16t-15 37 15 36 37 16l208 0q21 0 36-16t16-36-16-37-36-16l-52 0 0-51-1-1 0-3q156-17 270-125 1 1 3 4t3 5l27 26q15 15 36 15t37-15 15-37-15-37l-26-26q-5-5-15-10z m-386-630q151 0 258 107t107 258-107 258-258 106-258-106-107-258 107-258 258-107z m52 416l104 0q21 0 37-15t16-36-16-37-37-15l-156 0q-21 0-37 15t-16 37l0 156q0 22 16 37t37 15 37-15 15-37l0-105z m-52 262q129 0 220-92t92-221-92-221-220-92-221 92-92 221 92 221 221 92z m0-574q107 0 184 77t76 184-76 184-184 76-184-76-76-184 76-184 184-77z" horiz-adv-x="938" />
<glyph glyph-name="lightbulb" unicode="&#xe88b;" d="m390 663q64 0 109-45t46-110q0-11-7-18t-19-8-19 8-7 18q0 43-30 73t-73 30q-25 0-25 26t25 26z m0-860q-21 0-36 16t-15 37l-104 0q-21 0-37 15t-15 37l0 157q0 31-23 76t-90 142q-70 97-70 224 0 161 114 276t276 114 276-114 115-276q0-121-71-224-67-96-89-140t-22-78l0-157q0-21-15-37t-36-15l-105 0q0-22-16-37t-37-16z m105 156l0 53-209 0 0-53 209 0z m130 383q53 76 53 165 0 118-85 202t-203 84q-117 0-202-84t-84-202q0-87 52-164 107-155 124-227l59 0 0 105q0 21 15 36t36 15 37-15 16-36l0-105 57 0q16 71 125 226z" horiz-adv-x="781" />
<glyph glyph-name="block-outline" unicode="&#xe88c;" d="m443-93q-183 0-313 131t-130 312 130 313 313 130 312-130 130-313-130-312-312-131z m0 782q-140 0-240-100t-99-239 99-239 240-100 239 100 99 239-99 239-239 100z m0-156q-22 0-32-3l212-212q2 10 2 32 0 75-54 129t-128 54z m0 52q96 0 165-69t70-166q0-65-37-124l-322 322q60 37 124 37z m-179-202q-4-15-4-33 0-75 54-129t129-53q22 0 32 2z m-19 92l323-322q-60-38-125-38-98 0-166 69t-68 166q0 66 36 125z" horiz-adv-x="885" />
<glyph glyph-name="block" unicode="&#xe88d;" d="m416 767q173 0 295-122t123-295-123-294-295-122-294 122-122 294 122 295 294 122z m-260-417q0-107 77-183t183-77q63 0 120 30l-350 350q-30-57-30-120z m490-120q32 60 32 120 0 108-77 184t-185 76q-61 0-118-30z" horiz-adv-x="834" />
<glyph glyph-name="resize-full-outline" unicode="&#xe88e;" d="m613 845l377 0 0-365q0-50-29-90t-76-56l0-374-364 0q-16-46-60-76t-96-29l-365 0 0 365q0 50 29 90t76 56q0 2-1 3t0 4l0 368 362 0q17 47 57 75t90 29z m168-781l0 264q0 21-15 36t-37 16-36-16-15-36l0-160-157 0q-21 0-37-15t-15-37 15-37 37-15l260 0z m-572 572l0-263q0-22 15-37t36-15 37 15 16 37l0 160 160 0q21 0 36 15t15 37-15 36-36 15l-264 0z m676-156l0 261-260 0q-21 0-37-15t-15-37 15-37 37-16l83 0-172-171q-15-15-15-37t15-37 37-15q22 0 37 15l171 172 0-83q0-21 16-36t37-15 36 15 15 36z m-520-520q21 0 36 15t15 36-15 37-36 16l-82 0 171 171q15 15 15 37t-15 37-38 15q-21 0-36-15l-171-171 0 82q0 21-16 37t-37 16-37-16-15-37l0-260 261 0z m51 416q43 0 74-30t31-73q0-28-16-54 6 1 19 1l101 0 0 108q0 1 1 5t0 6q-23-15-53-15-43 0-74 31t-30 74q0 27 15 52-1 0-5 0t-6-1l-108 0 0-107q0-2-1-5t0-7q24 15 52 15z" horiz-adv-x="990" />
<glyph glyph-name="resize-full" unicode="&#xe88f;" d="m573 767l261 0 0-260q0-22-16-37t-37-16-37 16-15 37l0 82-171-171q-15-15-37-15-22 0-37 15t-15 37 15 37l171 171-82 0q-22 0-37 15t-15 37 15 37 37 15z m-297-484q15 15 37 15t36-15 15-37-15-37l-171-171 82 0q21 0 37-16t16-37-16-36-37-15l-260 0 0 260q0 21 16 37t37 16 36-16 15-37l0-82z m-120 67q-21 0-37 16t-15 37l0 260 261 0q21 0 36-16t15-37-15-36-36-15l-156 0 0-156q0-21-16-37t-37-16z m522 0q21 0 36-15t15-37l0-260-260 0q-21 0-37 15t-16 37 16 37 37 15l156 0 0 156q0 21 16 37t37 15z" horiz-adv-x="834" />
<glyph glyph-name="resize-normal-outline" unicode="&#xe890;" d="m834 845q64 0 110-46t46-110-46-110l-46-46q40-44 40-104 0-71-57-119 4-16 4-35l0-315-309 0q-22 0-38 5-48-58-122-58-62 0-106 42l-46-48q-46-46-108-46-63 0-110 46t-46 110q0 65 46 112l49 48q-36 44-36 102 0 66 51 113-6 32-6 39l0 316 316 0q11 0 34-5 47 57 119 57 62 0 105-39l45 45q46 46 111 46z m-625-209l0-207q0-21 15-37t36-16 37 16 16 37l0 104 103 0q22 0 37 15t16 37-16 36-37 15l-207 0z m661 17q15 15 15 36t-15 36q-16 16-36 16-21 0-38-16l-171-171 0 82q0 22-16 37t-36 16-37-16-15-37l0-260 260 0q22 0 37 16t16 37-16 36-37 15l-82 0z m-401-589l0 260-254 0q-21 0-37-15t-15-36 15-37 37-16l76 0-171-171q-15-15-15-37t15-37 36-15q19 0 34 15l175 178 0-89q0-21 15-37t36-16 37 16 16 37z m0 312l0 118q-28-14-49-14l-55 0 0-51q0-26-15-53l119 0z m52-52l0-120q27 16 55 16l49 0 0 55q0 40 38 49l-142 0z m3-208q0-21 15-37t37-15l205 0 0 209q0 21-15 36t-37 15-36-15-15-36l0-105-102 0q-21 0-37-15t-15-37z" horiz-adv-x="990" />
<glyph glyph-name="resize-normal" unicode="&#xe891;" d="m110 298l255 0 0-260q0-23-12-38t-34-15-37 16-16 37l0 89-177-178q-15-15-36-15-23 0-38 15t-15 37 15 37l171 171-76 0q-21 0-36 16t-15 37 15 36 36 15z m46 105q-21 0-37 15t-15 36l0 209 209 0q21 0 36-16t16-37-16-36-36-15l-104 0 0-105q0-21-16-36t-37-15z m522-105q21 0 36-15t15-36l0-209-208 0q-21 0-37 15t-15 37 15 37 37 15l104 0 0 105q0 21 16 36t37 15z m67 454q15 15 36 15t37-15 15-37-15-37l-172-171 83 0q21 0 37-16t15-37-15-36-37-15l-260 0 0 260q0 21 15 37t37 15 37-15 15-37l0-83z" horiz-adv-x="833" />
<glyph glyph-name="move-outline" unicode="&#xe892;" d="m1160 424q31-30 31-73t-31-75l-491-490q-31-31-73-31-42 0-73 31l-492 490q-31 32-31 75t31 73l492 490q31 31 73 31 42 0 73-31z m-304-283q20 0 37 17l193 192-193 193q-17 16-37 16-21 0-37-16-15-15-15-37t15-36l67-67-238 0 0 238 67-67q15-15 38-15 21 0 36 15t15 37-15 37l-193 192-193-192q-15-15-15-37t15-37 37-15q21 0 36 15l68 67 0-238-239 0 68 67q15 15 15 36t-15 37q-17 16-38 16-20 0-36-16l-194-193 194-192q16-17 36-17 21 0 38 17 15 15 15 36t-15 36l-68 68 239 0 0-239-68 67q-15 15-36 15-22 0-37-15t-15-37 15-36l193-193 193 193q15 15 15 36t-15 37-36 15q-23 0-38-15l-67-67 0 239 238 0-67-68q-15-15-15-36t15-36q16-17 37-17z m-90 105l-66 0 0-66q25 14 53 14 0 27 13 52z m-341 0q15-27 15-52 26 0 51-14l0 66-66 0z m0 208l66 0 0 66q-25-14-51-14 0-25-15-52z m341 0q-13 25-13 52-28 0-53 14l0-66 66 0z" horiz-adv-x="1191" />
<glyph glyph-name="move" unicode="&#xe893;" d="m788 543l192-193-192-192q-17-17-37-17-21 0-37 17-15 15-15 36t15 36l67 68-238 0 0-239 67 67q15 15 37 15t37-15 15-37-15-36l-194-193-192 193q-15 15-15 36t15 37 36 15 37-15l68-67 0 239-239 0 66-68q15-15 15-36t-15-36q-16-17-36-17-21 0-37 17l-193 192 193 193q15 15 36 15t37-15 15-37-15-36l-66-67 239 0 0 238-68-67q-15-15-37-15t-36 15-15 37 15 37l192 192 194-192q15-15 15-37t-15-37-38-15q-21 0-36 15l-67 67 0-238 238 0-67 67q-15 15-15 36t15 37 37 15 37-15z" horiz-adv-x="980" />
<glyph glyph-name="popup" unicode="&#xe894;" d="m781 793q44 0 74-31t30-73l0-522q0-43-30-73t-74-30l-103 0 0-53q0-42-31-73t-74-31l-469 0q-44 0-74 31t-30 73l0 469q0 44 31 74t73 31l52 0 0 104q0 42 31 73t73 30l521 0z m-677-782l469 0 0 443q0 10-8 18t-17 8l-444 0 0-469z m677 157l0 521-521 0 0-156 288 0q31 0 54-24t23-55l0-286 156 0z" horiz-adv-x="885" />
<glyph glyph-name="zoom-in-outline" unicode="&#xe895;" d="m495 450q10 0 18-8t8-18-8-18-18-8l-105 0 0-104q0-10-7-18t-18-8-18 8-8 18l0 104-104 0q-10 0-18 8t-8 18 8 18 18 8l104 0 0 104q0 10 8 18t18 8 18-8 7-18l0-104 105 0z m333-259q47-47 47-115t-47-115-115-49q-62 0-110 42l-125 124q-60-19-113-19-151 0-258 107t-107 258 107 257 258 107 258-107 106-257q0-54-19-114z m-204 58q-34-51-85-85l131-130q19-16 43-16 25 0 41 17t17 41q0 27-17 42z m-520 175q0-108 77-185t184-76 184 76 76 185-76 184-184 76-184-76-77-184z" horiz-adv-x="875" />
<glyph glyph-name="zoom-in" unicode="&#xe896;" d="m495 450q11 0 19-7t7-19-7-19-19-7l-105 0 0-104q0-26-25-26-11 0-19 7t-7 19l0 104-105 0q-25 0-25 26t25 26l105 0 0 104q0 11 7 19t19 7q25 0 25-26l0-104 105 0z m255-179q13-12 38-39t40-41q47-47 47-115t-47-115-115-49q-69 0-117 48l-117 118q-60-19-114-19-151 0-258 107t-107 258 107 257 258 107 258-107 106-257q0-58-18-114z m-646 153q0-108 77-185t184-76 184 76 76 185-76 184-184 76-184-76-77-184z" horiz-adv-x="875" />
<glyph glyph-name="zoom-out-outline" unicode="&#xe897;" d="m495 398l-260 0q-10 0-18 8t-8 18 8 18 18 8l260 0q10 0 18-8t8-18-8-18-18-8z m333-207q47-47 47-115t-47-115-115-49q-62 0-110 42l-125 124q-60-19-113-19-151 0-258 107t-107 258 107 257 258 107 258-107 106-257q0-59-19-114z m-204 58q-34-51-85-85l131-130q19-16 43-16 25 0 41 17t17 41q0 27-17 42z m-520 175q0-108 77-185t184-76 184 76 76 185-76 184-184 76-184-76-77-184z" horiz-adv-x="875" />
<glyph glyph-name="zoom-out" unicode="&#xe898;" d="m495 450q11 0 19-7t7-19-7-19-19-7l-260 0q-11 0-19 7t-7 19 7 19 19 7l260 0z m333-259q47-47 47-115t-47-115-115-49q-72 0-117 48l-117 118q-60-19-114-19-151 0-258 107t-107 258 107 257 258 107 258-107 106-257q0-58-18-114 12-11 33-34t34-33z m-724 233q0-108 77-185t184-76 184 76 76 185-76 184-184 76-184-76-77-184z" horiz-adv-x="875" />
<glyph glyph-name="popup-1" unicode="&#xe899;" d="m781 793q44 0 74-31t30-73l0-522q0-43-30-73t-74-30l-103 0 0-53q0-42-31-73t-74-31l-469 0q-44 0-74 31t-30 73l0 469q0 44 31 74t73 31l52 0 0 104q0 42 31 73t73 30l521 0z m-677-782l469 0 0 443q0 10-8 18t-17 8l-444 0 0-469z m677 157l0 521-521 0 0-156 288 0q31 0 54-24t23-55l0-286 156 0z" horiz-adv-x="885" />
<glyph glyph-name="left-open-outline" unicode="&#xe89a;" d="m638 91q0-64-47-111t-110-46q-65 0-110 45l-371 372 371 371q44 44 111 44t111-44q45-45 45-111 0-65-45-110l-150-150 150-150q45-45 45-110z m-490 260l297-298q15-15 37-15t37 15 15 38q0 21-15 36l-224 224 224 223q15 15 15 37 0 22-15 37t-37 15-37-15z" horiz-adv-x="638" />
<glyph glyph-name="left-open" unicode="&#xe89b;" d="m481 684q32-31 32-74t-32-74l-186-186 186-186q32-31 32-74t-32-74-73-31-74 31l-334 334 334 334q30 31 74 31t73-31z" horiz-adv-x="513" />
<glyph glyph-name="right-open-outline" unicode="&#xe89c;" d="m156-66q-63 0-110 46t-46 111 46 110l150 150-150 150q-46 46-46 110 0 65 46 111 44 44 110 44t110-44l372-371-372-372q-45-45-110-45z m0 729q-21 0-37-16t-15-36q0-20 16-37l223-223-223-224q-16-16-16-36 0-22 16-38 15-15 36-15t37 15l297 298-297 297q-15 15-37 15z" horiz-adv-x="638" />
<glyph glyph-name="right-open" unicode="&#xe89d;" d="m31 684q30 31 74 31t74-31l335-334-335-334q-31-31-74-31t-74 31-31 74 31 74l188 186-188 186q-31 32-31 74t31 74z" horiz-adv-x="514" />
<glyph glyph-name="down" unicode="&#xe89e;" d="m700 391q31-31 31-73t-31-74l-334-334-335 334q-31 31-31 74t31 73 74 32 74-32l82-82 0 377q0 43 31 73t74 31q43 0 73-31t31-73l0-377 83 82q31 32 73 32t74-32z" horiz-adv-x="731" />
<glyph glyph-name="left" unicode="&#xe89f;" d="m776 454q43 0 73-31t31-74q0-43-30-73t-74-31l-377 0 82-82q32-30 32-74t-32-74q-30-30-73-30t-74 30l-334 334 334 335q31 31 74 31t73-31q32-30 32-73t-32-75l-82-82 377 0z" horiz-adv-x="880" />
<glyph glyph-name="right" unicode="&#xe8a0;" d="m399 684q31 31 74 31t73-31l334-335-334-334q-30-30-73-30t-74 30q-31 31-31 74t31 74l82 82-377 0q-44 0-74 31t-30 73q0 44 31 74t73 31l377 0-82 82q-31 32-31 75t31 73z" horiz-adv-x="880" />
<glyph glyph-name="up" unicode="&#xe8a1;" d="m366 790l334-334q31-31 31-73t-31-74-74-31-73 31l-83 82 0-377q0-44-31-74t-73-30q-43 0-74 31t-31 73l0 377-82-82q-31-31-74-31t-74 31-31 74 31 73z" horiz-adv-x="731" />
<glyph glyph-name="down-outline" unicode="&#xe8a2;" d="m416-153l-370 371q-46 46-46 110t46 110q43 43 106 44t108-38l0 253q0 65 46 110t110 46 111-46 46-110l0-253q45 40 108 38t107-44q46-46 46-110t-46-110z m-260 534q-22 0-37-15t-15-37 15-37l297-298 298 298q15 15 15 37t-15 37-37 15-37-15l-171-173 0 504q0 21-16 36t-37 15-36-15-15-36l0-504-172 173q-15 15-37 15z" horiz-adv-x="834" />
<glyph glyph-name="left-outline" unicode="&#xe8a3;" d="m638 91q0-64-47-111t-110-46-110 46l-371 371 371 371q44 44 110 44t110-44q47-46 47-110 0-61-40-105l252 0q65 0 111-46t45-110-45-111-111-46l-252 0q40-43 40-103z m-490 260l297-297q15-15 37-15t37 15 15 37-15 36l-173 172 504 0q21 0 36 15t15 37-15 36-36 16l-504 0 173 171q15 15 15 38 0 21-15 36t-37 15-37-15z" horiz-adv-x="1006" />
<glyph glyph-name="right-outline" unicode="&#xe8a4;" d="m525-66q-64 0-110 46t-46 111q0 11 1 20t5 18 7 17 11 21 15 27l-252 0q-65 0-110 46t-46 111 46 110 110 46l252 0q-5 11-14 27t-12 22-7 16-5 20-1 20q0 65 45 110 44 44 110 44t111-44l371-371-371-370q-46-47-110-47z m-369 469q-21 0-37-16t-15-36 15-37 37-15l503 0-171-172q-15-15-15-36t15-37 36-15 37 15l298 297-298 297q-15 15-37 15t-36-15-15-36q0-23 15-38l171-171-503 0z" horiz-adv-x="1006" />
<glyph glyph-name="up-outline" unicode="&#xe8a5;" d="m416-151q-65 0-110 46t-46 110l0 248q-45-40-108-38t-106 44q-46 46-46 111t46 110l370 372 372-372q46-46 46-110t-46-111q-43-42-107-44t-108 38l0-248q0-65-46-110t-111-46z m-51 655l0-499q0-21 15-37t36-15 37 15 16 37l0 499 171-171q15-15 37-15t37 15 15 37-15 37l-298 297-297-297q-15-15-15-37t15-37 37-15 37 15z" horiz-adv-x="834" />
<glyph glyph-name="down-small" unicode="&#xe8a6;" d="m505 346q15-15 15-37t-15-37l-245-245-245 245q-15 15-15 37t15 37 37 15 37-15l120-119 0 395q0 21 15 36t36 15 37-15 16-36l0-395 120 119q15 15 36 15t36-15z" horiz-adv-x="520" />
<glyph glyph-name="left-small" unicode="&#xe8a7;" d="m595 403q21 0 36-16t15-37-15-37-36-15l-395 0 119-119q15-15 15-37t-15-37-36-15q-23 0-38 15l-245 245 245 245q15 15 37 15t37-15 15-37-15-37l-119-118 395 0z" horiz-adv-x="646" />
<glyph glyph-name="right-small" unicode="&#xe8a8;" d="m328 595q15 15 36 15t37-15l245-245-245-245q-15-15-36-15-22 0-37 15t-15 37 15 37l120 119-395 0q-22 0-37 15t-16 37 16 37 37 16l395 0-120 118q-15 15-15 37t15 37z" horiz-adv-x="646" />
<glyph glyph-name="up-small" unicode="&#xe8a9;" d="m260 673l245-245q15-15 15-37t-15-37-36-15-36 15l-120 120 0-395q0-21-16-37t-37-15-36 15-15 37l0 395-120-120q-15-15-37-15t-37 15-15 37 15 37z" horiz-adv-x="520" />
<glyph glyph-name="cw-outline" unicode="&#xe8aa;" d="m696 767q54 0 95-41t43-119l0-257q0-180-123-299t-295-118-294 122-122 295 122 295 294 122q93 0 179-40 49 40 101 40z m-471-426q0 74 54 127t127 54q58 0 100-27l-76-74q-31-31-21-51t54-20l266 0 0 257q0 55-33 55-20 0-43-24l-60-60q-82 64-187 64-125 0-213-89-88-87-88-213t88-214q88-89 213-89t214 89q25 25 41 50 19 29 2 61t-53 33q-32 0-50-28-24-36-66-60t-88-24q-73 0-127 55t-54 128z m53 0q0-54 37-91t91-38q53 0 92 39 10 10 18 22t12 19l2 6-67 0q-82 0-103 49-20 48 34 101l12 7q-60 0-91-32-37-36-37-82z" horiz-adv-x="834" />
<glyph glyph-name="cw" unicode="&#xe8ab;" d="m121 340q0-74 54-128t128-53q46 0 87 23t65 60q13 20 38 26t46-8q21-14 26-38t-7-45q-18-27-42-51-88-89-213-89t-214 89-89 214 89 214 214 88q105 0 186-63l60 60q31 31 54 21t22-53l0-267-267 0q-44 0-54 22t22 54l77 76q-44 29-100 29-74 0-128-54t-54-127z" horiz-adv-x="625" />
<glyph glyph-name="arrows-cw-outline" unicode="&#xe8ac;" d="m286 845q0 64 47 110t110 47q65 0 111-47l241-241q31-11 56-36 139-139 139-326 0-205-145-350-67-67-147-103 5-19 5-44 0-63-46-110t-109-46q-65 0-112 46l-243 244q-30 11-54 35-139 139-139 326 0 205 145 350 68 68 148 103-7 22-7 42z m228-884q149 5 257 114 114 114 114 277 0 145-107 252-15 15-37 15-22 0-37-15t-15-37 15-37q42-42 60-83t17-95q0-119-83-203-75-75-179-82l65 65q15 15 15 36t-15 37-36 15q-23 0-38-15l-192-193 192-193q15-15 38-15 21 0 36 15t15 37-15 37z m-40 779q-149-7-255-113-115-115-115-277 0-145 107-252 15-15 38-15 21 0 36 15t15 37-15 37q-42 42-59 82t-17 96q0 119 84 203 76 76 180 84l-67-68q-15-15-15-36t15-36q17-17 37-17 21 0 37 17l193 192-193 193q-16 16-37 16-20 0-37-16-15-15-15-37t15-36z m-135-215q-79-71-79-175 0-45 14-75t49-66q37-37 28-89l123 122q31 31 74 31 41 0 71-28t32-68q78 71 78 175 0 45-13 76t-48 66-29 88l-123-123q-30-30-73-30-42 0-72 28t-32 68z" horiz-adv-x="990" />
<glyph glyph-name="arrows-cw" unicode="&#xe8ad;" d="m781 352q0-162-115-277-108-109-256-114l70-68q15-15 15-37t-15-37-37-15q-22 0-37 15l-193 193 193 193q15 15 37 15t37-15 15-37-15-36l-65-65q104 7 179 82 84 84 84 203 0 55-18 95t-60 83q-15 15-15 37t15 37 37 15 37-15q107-107 107-252z m-677-2q0-55 17-95t60-83q15-15 15-37t-15-37-36-15q-22 0-37 15-108 107-108 252 0 162 115 277 106 106 255 113l-69 69q-15 15-15 36t15 37 37 15 37-15l194-193-194-192q-16-17-36-17-21 0-38 17-15 15-15 36t15 36l67 68q-104-8-180-84-84-84-84-203z" horiz-adv-x="781" />
<glyph glyph-name="loop-outline" unicode="&#xe8ae;" d="m781 871q64 0 110-47t47-110l0-8q112-29 186-128t74-227q0-152-107-259t-257-107l-53 0q-60 0-103 41l-150-151q-47-46-112-46-63 0-110 46t-46 110q0 2 1 5t0 5q-112 29-187 129t-74 227q0 151 107 257t258 106l51 0q60 0 104-40l151 152q45 45 110 45z m53-782q107 0 184 77t76 185-69 183-165 77l-109 0 67 67q15 15 15 37t-15 37-37 15-36-15l-194-194 194-192q15-15 36-15t37 15 15 36-15 37l-67 68 109 0q54 0 92-46t38-110-46-111-110-46l-53 0q-21 0-37-15t-15-37 15-37 37-16l53 0z m-521 209q0 43 30 73t73 31q44 0 74-30l194-194q11 30 37 49t60 19l53 0q42 0 73 30t31 75q0 37-19 66t-46 36q12-21 12-51 0-43-31-73t-73-31q-43 0-73 30l-194 194q-11-30-38-49t-60-19l-51 0q-44 0-74-30t-31-73q0-38 19-67t46-36q-12 21-12 50z m156 260q0 21-16 37t-37 16l-51 0q-107 0-184-77t-77-183 69-185 166-77l109 0-68-67q-15-15-15-36t15-37q16-16 36-16 22 0 38 16l192 193-192 192q-16 17-38 17-20 0-36-17-15-15-15-36t15-36l68-68-109 0q-54 0-92 46t-38 111 45 110 111 46l51 0q22 0 37 15t16 36z" horiz-adv-x="1198" />
<glyph glyph-name="loop" unicode="&#xe8af;" d="m703 610q96 0 165-76t70-184-77-183-183-77q-22 0-37 15t-16 37 16 36 37 16q65 0 110 46t46 110-39 111-92 46l-108 0 66-68q15-15 15-37t-15-37-36-15-36 15l-194 194 194 193q15 15 36 15t36-15 15-37-15-37l-66-68 108 0z m-427-275q15 15 37 15t36-15l194-193-194-193q-15-15-36-15t-37 15-15 37 15 37l67 67-108 0q-96 0-166 77t-69 183 76 184 184 76q21 0 37-15t16-36-16-37-37-15q-65 0-111-46t-45-111 39-110 92-46l108 0-67 68q-15 15-15 36t15 37z" horiz-adv-x="938" />
<glyph glyph-name="loop-alt-outline" unicode="&#xe8b0;" d="m781 793q64 0 110-47t47-110l0-8q112-29 186-128t74-227q0-152-107-259t-257-107l-469 0q-151 0-258 107t-107 259 107 257 258 106l51 0q62 0 104-38l151 150q45 45 110 45z m53-782q107 0 184 77t76 185-69 183-165 77l-109 0 67 67q15 15 15 37t-15 37-37 15-36-15l-194-194 194-193q15-15 36-15t37 15 15 37-15 37l-67 68 109 0q54 0 92-46t38-111-46-110-110-46l-469 0q-65 0-111 46t-45 110 45 111 111 46l51 0q22 0 37 15t16 36-16 37-37 15l-51 0q-107 0-184-76t-77-184 77-184 184-77l469 0z m51 313q0-43-31-73t-73-31q-43 0-73 30l-194 194q-11-30-38-49t-60-19l-51 0q-44 0-74-30t-31-73q0-44 31-75t74-30l469 0q42 0 73 30t31 75q0 37-19 66t-46 36q12-21 12-51z" horiz-adv-x="1198" />
<glyph glyph-name="loop-alt" unicode="&#xe8b1;" d="m703 533q96 0 165-77t70-184-77-184-183-76l-418 0q-107 0-184 76t-76 184 76 184 184 77q21 0 37-16t16-36-16-37-37-16q-65 0-111-46t-45-110 45-111 111-45l418 0q65 0 110 45t46 111-39 110-92 46l-108 0 66-67q15-15 15-37t-15-36q-16-16-36-16t-36 16l-194 193 194 192q15 15 36 15t36-15 15-36-15-36l-66-68 108 0z" horiz-adv-x="938" />
<glyph glyph-name="shuffle" unicode="&#xe8b2;" d="m53 533q-22 0-37 15t-16 37 16 36 37 15l182 0q91 0 158-68-33-35-62-88-40 53-96 53l-182 0z m400-163l-25-72q-33-100-103-167t-142-67l-130 0q-22 0-37 15t-16 37 16 37 37 15l130 0q32 0 77 46t69 116l25 74q32 99 116 165t173 67l95 0-67 68q-15 15-15 37t15 37 37 15 37-15l193-193-193-194q-15-15-37-15-22 0-37 15t-15 37 15 37l67 68-95 0q-54 0-112-49t-78-114z m218-61q15 15 37 15t37-15l193-193-193-194q-15-15-37-15-22 0-37 15t-15 37 15 37l67 68-122 0q-118 0-196 100 35 52 56 114 14-49 53-80t87-30l122 0-67 67q-15 15-15 37t15 37z" horiz-adv-x="938" />
<glyph glyph-name="play-outline" unicode="&#xe8b3;" d="m104 610l0-520q1 0 1 1t1 0l265 259-262 256-3 3t-2 1z m0 105q44 0 74-30l343-335q-207-201-345-335-30-30-72-30t-73 31-31 74l0 520q0 44 31 74t73 31z" horiz-adv-x="521" />
<glyph glyph-name="play" unicode="&#xe8b4;" d="m178 15q-30-30-74-30-43 0-73 31t-31 74l0 520q0 44 31 74t73 31q44 0 74-30l343-335q-206-201-343-335z" horiz-adv-x="521" />
<glyph glyph-name="stop-outline" unicode="&#xe8b5;" d="m521 559l-417 0 0-418 417 0 0 418z m0 104q44 0 74-30t30-74l0-418q0-43-30-73t-74-30l-417 0q-44 0-74 30t-30 73l0 418q0 44 30 74t74 30l417 0z" horiz-adv-x="625" />
<glyph glyph-name="stop" unicode="&#xe8b6;" d="m521 663q44 0 74-30t30-74l0-418q0-43-30-73t-74-30l-417 0q-44 0-74 30t-30 73l0 418q0 44 30 74t74 30l417 0z" horiz-adv-x="625" />
<glyph glyph-name="pause-outline" unicode="&#xe8b7;" d="m156-41q-65 0-110 46t-46 111l0 468q0 65 46 111t110 46 111-46 46-111l0-468q0-65-46-111t-111-46z m0 677q-21 0-37-15t-15-37l0-468q0-22 15-37t37-16 37 16 16 37l0 468q0 22-16 37t-37 15z m365-677q-65 0-110 46t-46 111l0 468q0 65 46 111t110 46 111-46 46-111l0-468q0-65-46-111t-111-46z m0 677q-21 0-37-15t-15-37l0-468q0-22 15-37t37-16 37 16 15 37l0 468q0 22-15 37t-37 15z" horiz-adv-x="678" />
<glyph glyph-name="pause" unicode="&#xe8b8;" d="m104 663q44 0 74-31t31-73l0-418q0-42-31-73t-74-31-74 30-30 74l0 418q0 44 30 74t74 30z m365 0q44 0 74-30t30-74l0-418q0-43-30-73t-74-30-74 30-30 73l0 418q0 44 30 74t74 30z" horiz-adv-x="573" />
<glyph glyph-name="fast-fw-outline" unicode="&#xe8b9;" d="m573 559l0-418 216 210z m-10 119q36 0 65-26l310-301q-187-182-310-302-28-27-65-27-39 0-67 27t-27 67l0 468q0 39 27 67t67 27z m-459-119l0-418 216 210z m-10 119q36 0 65-26l310-301q-186-182-310-302-28-27-65-27-39 0-66 27t-28 67l0 468q0 39 28 67t66 27z" horiz-adv-x="938" />
<glyph glyph-name="fast-fw" unicode="&#xe8ba;" d="m628 652l310-301q-187-182-310-302-28-27-65-27-39 0-67 27t-27 67l0 468q0 39 27 67t67 27q36 0 65-26z m-469 0l310-301q-186-182-310-302-28-27-65-27-39 0-66 27t-28 67l0 468q0 39 28 67t66 27q36 0 65-26z" horiz-adv-x="938" />
<glyph glyph-name="rewind-outline" unicode="&#xe8bb;" d="m365 559l-216-208 216-210 0 418z m10 119q39 0 66-27t28-67l0-468q0-39-28-67t-66-27q-35 0-65 27l-310 302q186 181 310 301 26 26 65 26z m459-119l-216-208 216-210 0 418z m10 119q39 0 66-27t28-67l0-468q0-39-28-67t-66-27q-35 0-65 27l-310 302q186 181 310 301 26 26 65 26z" horiz-adv-x="938" />
<glyph glyph-name="rewind" unicode="&#xe8bc;" d="m375 678q39 0 66-27t28-67l0-468q0-39-28-67t-66-27q-35 0-65 27l-310 302q186 181 310 301 26 26 65 26z m469 0q39 0 66-27t28-67l0-468q0-39-28-67t-66-27q-35 0-65 27l-310 302q186 181 310 301 26 26 65 26z" horiz-adv-x="938" />
<glyph glyph-name="record-outline" unicode="&#xe8bd;" d="m313 559q-87 0-148-61t-61-148 61-147 148-62 147 62 61 147-61 148-147 61z m0 104q130 0 221-92t91-221-91-221-221-91-222 91-91 221 91 221 222 92z" horiz-adv-x="625" />
<glyph glyph-name="record" unicode="&#xe8be;" d="m313 663q130 0 221-92t91-221-91-221-221-91-222 91-91 221 91 221 222 92z" horiz-adv-x="625" />
<glyph glyph-name="eject-outline" unicode="&#xe8bf;" d="m625 608q114-34 186-127t72-215q0-150-109-255t-260-104q-123 0-221 73t-133 188l-56 0q-44 0-74 30t-30 74l0 521 521 0q43 0 73-31t31-74l0-80z m-416-97l250-250q15-15 36-15 23 0 38 15t15 36-15 37l-250 250 168 0q22 0 37 16t15 37-15 36-37 15l-347 0 0-346q0-21 15-37t37-16 37 16 16 37l0 169z m312-502q108 0 184 76t76 183-76 183-184 75q-37 0-86-20l134-134q31-31 31-75t-31-73q-31-31-74-31t-74 31l-150 150q-11-31-11-103 0-108 77-185t184-77z" horiz-adv-x="883" />
<glyph glyph-name="eject" unicode="&#xe8c0;" d="m469 51q96 0 165 68t69 165-69 166-165 69q-21 0-37 16t-16 37 16 36 37 15q140 0 239-99t100-240-100-238-239-99-240 99-99 238q0 22 16 37t37 16 36-16 16-37q0-96 69-165t165-68z m-123 702q22 0 37-15t16-36-16-37-37-16l-168 0 302-302q15-15 15-37t-15-37-37-15q-22 0-37 15l-302 303 0-169q0-21-15-37t-36-16-37 16-16 37l0 346 346 0z" horiz-adv-x="808" />
<glyph glyph-name="eject-alt-outline" unicode="&#xe8c1;" d="m573-93l-417 0q-65 0-110 46t-46 111 46 110 110 46l417 0q65 0 110-46t46-110-46-111-110-46z m-417 209q-21 0-37-15t-15-37 15-37 37-16l417 0q21 0 36 16t16 37-16 37-36 15l-417 0z m209 528l-256-264-3-2t-2-2l521 0-1 2-1 1z m0 149q201-207 335-344 29-29 29-73 0-42-31-73t-73-30l-521 0q-44 0-74 30t-30 73 30 73z" horiz-adv-x="729" />
<glyph glyph-name="eject-alt" unicode="&#xe8c2;" d="m625 142q43 0 73-31t31-73-31-73-73-31l-521 0q-44 0-74 31t-30 73 30 73 74 31l521 0z m75 281q29-29 29-73 0-42-31-73t-73-30l-521 0q-44 0-74 30t-30 73 30 73l335 344q201-207 335-344z" horiz-adv-x="729" />
<glyph glyph-name="bat1" unicode="&#xe8c3;" d="m209 194q-21 0-37 15t-16 37l0 209q0 21 16 36t37 15 36-15 15-36l0-209q0-21-15-37t-36-15z m676 312q44 0 74-30t31-73l0-104q0-44-31-75t-74-30q0-65-46-111t-110-45l-573 0q-65 0-110 45t-46 111l0 312q0 65 46 111t110 46l573 0q65 0 110-46t46-111z m-104-312l0 312q0 22-15 37t-37 16l-573 0q-21 0-37-16t-15-37l0-312q0-21 15-36t37-15l573 0q21 0 37 15t15 36z" horiz-adv-x="990" />
<glyph glyph-name="bat2" unicode="&#xe8c4;" d="m365 194q-21 0-37 15t-15 37l0 209q0 21 15 36t37 15 36-15 15-36l0-209q0-21-15-37t-36-15z m-156 0q-21 0-37 15t-16 37l0 209q0 21 16 36t37 15 36-15 15-36l0-209q0-21-15-37t-36-15z m676 312q44 0 74-30t31-73l0-104q0-44-31-75t-74-30q0-65-46-111t-110-45l-573 0q-65 0-110 45t-46 111l0 312q0 65 46 111t110 46l573 0q65 0 110-46t46-111z m-104-312l0 312q0 22-15 37t-37 16l-573 0q-21 0-37-16t-15-37l0-312q0-21 15-36t37-15l573 0q21 0 37 15t15 36z" horiz-adv-x="990" />
<glyph glyph-name="bat3" unicode="&#xe8c5;" d="m365 194q-21 0-37 15t-15 37l0 209q0 21 15 36t37 15 36-15 15-36l0-209q0-21-15-37t-36-15z m-156 0q-21 0-37 15t-16 37l0 209q0 21 16 36t37 15 36-15 15-36l0-209q0-21-15-37t-36-15z m312 0q-21 0-37 15t-15 37l0 209q0 21 15 36t37 15 37-15 15-36l0-209q0-21-15-37t-37-15z m364 312q44 0 74-30t31-73l0-104q0-44-31-75t-74-30q0-65-46-111t-110-45l-573 0q-65 0-110 45t-46 111l0 312q0 65 46 111t110 46l573 0q65 0 110-46t46-111z m-104-312l0 312q0 22-15 37t-37 16l-573 0q-21 0-37-16t-15-37l0-312q0-21 15-36t37-15l573 0q21 0 37 15t15 36z" horiz-adv-x="990" />
<glyph glyph-name="bat4" unicode="&#xe8c6;" d="m365 194q-21 0-37 15t-15 37l0 209q0 21 15 36t37 15 36-15 15-36l0-209q0-21-15-37t-36-15z m-156 0q-21 0-37 15t-16 37l0 209q0 21 16 36t37 15 36-15 15-36l0-209q0-21-15-37t-36-15z m469 0q-22 0-37 15t-16 37l0 209q0 21 16 36t37 15 36-15 15-36l0-209q0-21-15-37t-36-15z m-157 0q-21 0-37 15t-15 37l0 209q0 21 15 36t37 15 37-15 15-36l0-209q0-21-15-37t-37-15z m364 312q44 0 74-30t31-73l0-104q0-44-31-75t-74-30q0-65-46-111t-110-45l-573 0q-65 0-110 45t-46 111l0 312q0 65 46 111t110 46l573 0q65 0 110-46t46-111z m-104-312l0 312q0 22-15 37t-37 16l-573 0q-21 0-37-16t-15-37l0-312q0-21 15-36t37-15l573 0q21 0 37 15t15 36z" horiz-adv-x="990" />
<glyph glyph-name="bat-charge" unicode="&#xe8c7;" d="m156 506l573 0 0-312-573 0 0 312z m304-255l165 122-135-23-61 99-169-121 138 22z m425 255q44 0 74-30t31-73l0-104q0-44-31-75t-74-30q0-65-46-111t-110-45l-573 0q-65 0-110 45t-46 111l0 312q0 65 46 111t110 46l573 0q65 0 110-46t46-111z m-104-312l0 312q0 22-15 37t-37 16l-573 0q-21 0-37-16t-15-37l0-312q0-21 15-36t37-15l573 0q21 0 37 15t15 36z" horiz-adv-x="990" />
<glyph glyph-name="plug" unicode="&#xe8c8;" d="m365 64q-151 0-258 106t-107 258l104 0q0-108 77-184t184-76 184 76 76 184l104 0q0-151-106-258t-258-106z m313 286q-22 0-37 16t-16 37l0 156-521 0 0-156q0-21-15-37t-36-16-37 16-16 37l0 207q0 22 16 37t37 16l625 0q21 0 36-16t15-37l0-207q0-21-15-37t-36-16z m-418 469l-104 0 0-156 104 0 0 156z m0 53q21 0 37-16t16-37l0-156q0-21-16-37t-37-16l-104 0q-21 0-37 16t-15 37l0 156q0 21 15 37t37 16l104 0z m156-808l-103 0 0-130 103 0 0 130z m0 104q44 0 75-31t30-73l0-130q0-44-30-74t-75-31l-103 0q-43 0-74 31t-30 74l0 130q0 44 30 74t74 30l103 0z m157 651l-104 0 0-156 104 0 0 156z m0 53q21 0 36-16t16-37l0-156q0-21-16-37t-36-16l-104 0q-21 0-37 16t-16 37l0 156q0 21 16 37t37 16l104 0z m105-522l-625 0q-12 0-19 8t-8 19 8 18 19 8l625 0q25 0 25-26t-25-27z m-313-235q-25 0-52 7l0-84 103 0 0 84q-27-7-51-7z m-156-77l0 104 51 0 0-104-51 0z m260 0l0 104 52 0 0-104-52 0z" horiz-adv-x="729" />
<glyph glyph-name="target-outline" unicode="&#xe8c9;" d="m443 793q182 0 312-130t130-313-130-312-312-131-313 131-130 312 130 313 313 130z m0-780q140 0 239 98t99 239-99 239-239 100-240-100-99-239 99-239 240-98z m182 390q-21 0-37-16t-15-37 15-36 37-15l46 0q-15-66-63-114t-113-62l0 45q0 21-16 36t-36 16-37-16-16-36l0-45q-65 15-112 62t-63 114l45 0q21 0 37 15t16 36-16 37-37 16l-45 0q15 66 63 113t112 63l0-46q0-22 16-37t37-16 36 16 16 37l0 46q65-15 113-63t63-113l-46 0z m-31-152q-33 10-53 38t-20 61 20 61 53 38q-21 31-53 52-10-32-37-52t-61-20-62 20-37 52q-31-21-53-52 33-10 53-38t21-61-21-61-53-38q19-30 53-51 10 33 37 53t62 20 61-20 37-53q34 21 53 51z" horiz-adv-x="885" />
<glyph glyph-name="target" unicode="&#xe8ca;" d="m365-14q-151 0-258 106t-107 258 107 258 258 107 258-107 106-258-106-258-258-106z m-52 619q-78-17-132-71t-71-132l99 0q21 0 36-16t15-36-15-37-36-15l-99 0q16-77 71-132t132-71l0 98q0 22 15 37t37 16 36-16 15-37l0-98q77 16 132 71t72 132l-99 0q-21 0-37 15t-15 37 15 36 37 16l99 0q-16 76-71 131t-133 72l0-99q0-21-15-36t-36-15-37 15-15 36l0 99z" horiz-adv-x="729" />
<glyph glyph-name="wifi-outline" unicode="&#xe8cb;" d="m954 446q0-80-55-135l-290-295q-30-31-60-41t-71-10q-82 0-138 63-279 280-300 301-16 16-28 49t-12 63q0 60 36 109 29 31 39 39 174 146 402 146t402-146q16-13 27-25 48-45 48-118z m-476-377q32 0 55 22t22 55-22 56-55 23-56-23-23-56 23-55 56-22z m202 170q23 22 23 55t-23 56q-84 84-203 84t-203-84q-23-22-23-56t23-55 55-23 56 23q39 39 92 39t92-39q22-23 55-23 34 0 56 23z m146 147q23 23 23 56t-23 56q-143 143-348 143t-350-143q-23-23-23-56t23-56 55-22 55 22q100 100 240 100t238-100q23-22 55-22t55 22z" horiz-adv-x="954" />
<glyph glyph-name="wifi" unicode="&#xe8cc;" d="m621-36q-30-32-73-31t-74 31-31 73 31 74q30 31 73 31t74-31q32-30 32-74t-32-73z m368 411q-41 0-73 31-152 151-368 151t-369-151q-31-31-74-30t-74 30q-31 31-31 73t31 73q140 140 328 190t375 0 329-190q31-31 31-73t-31-73-74-31z m-663-221q-42 0-73 31t-32 74 32 73q80 80 187 109t215 0 188-109q31-31 31-73t-31-74-74-31-74 31q-61 61-147 61t-148-61q-31-31-74-31z" horiz-adv-x="1094" />
<glyph glyph-name="desktop" unicode="&#xe8cd;" d="m1094 897q65 0 110-46t46-110l0-573q0-65-46-110t-110-46l-313 0 0-104 157 0q21 0 36-15t16-37-16-37-36-16l-625 0q-22 0-37 16t-16 37 16 37 37 15l156 0 0 104-313 0q-65 0-110 46t-46 110l0 573q0 65 46 110t110 46l938 0z m-365-989l0 104-208 0 0-104 208 0z m417 260l0 573q0 21-15 37t-37 15l-938 0q-21 0-37-15t-15-37l0-573q0-21 15-37t37-15l938 0q21 0 37 15t15 37z m-105 573q22 0 37-15t16-36l0-418q0-21-16-36t-37-15l-832 0q-21 0-37 15t-16 36l0 418q0 21 16 36t37 15l832 0z m0-469l0 418-832 0 0-418 832 0z" horiz-adv-x="1250" />
<glyph glyph-name="laptop" unicode="&#xe8ce;" d="m1145 139q45-10 75-46t30-81q0-54-38-92t-92-39l-990 0q-54 0-92 39t-38 92q0 46 30 81t75 46q0 8-1 26t0 29l0 469q0 65 45 110t111 46l730 0q65 0 111-46t45-110l0-469q0-10 0-29t-1-26z m-936 524l0-469q0-11 0-29t1-23l50 0 0 468q0 22 16 37t37 16l625 0q21 0 36-16t16-37l0-468 51 0 0 521q0 21-15 37t-36 15l-730 0q-21 0-36-15t-15-37z m729-521l0 468-625 0 0-468 625 0z m182-157q10 0 18 8t8 19-8 18-18 8l-990 0q-10 0-18-8t-8-18 8-19 18-8l990 0z" horiz-adv-x="1250" />
<glyph glyph-name="tablet" unicode="&#xe8cf;" d="m678 741q21 0 36-15t15-36l0-625q0-22-15-37t-36-16l-183 0q0-21-16-37t-36-16-37 16-16 37l-181 0q-21 0-37 16t-16 37l0 625q0 21 16 36t37 15l469 0z m0-676l0 625-469 0 0-625 469 0z m51 832q65 0 110-46t46-110l0-782q0-65-46-110t-110-46l-573 0q-65 0-110 46t-46 110l0 782q0 65 46 110t110 46l573 0z m52-938l0 782q0 21-15 37t-37 15l-573 0q-21 0-37-15t-15-37l0-782q0-21 15-36t37-15l573 0q21 0 37 15t15 36z" horiz-adv-x="885" />
<glyph glyph-name="mobile" unicode="&#xe8d0;" d="m521 819q65 0 111-46t46-110l0-625q0-65-46-111t-111-46l-365 0q-65 0-110 46t-46 111l0 625q0 65 46 110t110 46l365 0z m52-781l0 625q0 21-15 37t-37 15l-365 0q-21 0-37-15t-15-37l0-625q0-21 15-37t37-16l365 0q22 0 37 16t15 37z m-104 625q21 0 37-16t15-37l0-468q0-22-15-37t-37-15l-79 0q0-21-15-37t-36-15-37 15-16 37l-77 0q-21 0-37 15t-16 37l0 468q0 22 16 37t37 16l260 0z m0-521l0 468-260 0 0-468 260 0z" horiz-adv-x="678" />
<glyph glyph-name="contrast" unicode="&#xe8d1;" d="m416 767q173 0 295-122t123-295-123-294-295-122-294 122-122 294 122 295 294 122z m0-729q129 0 221 91t92 221-92 222-221 91-220-91-92-222 92-221 220-91z m0 572q108 0 185-76t77-184-77-183-185-77l0 520z" horiz-adv-x="834" />
<glyph glyph-name="globe-outline" unicode="&#xe8d2;" d="m469 819q194 0 331-137t138-332-138-331-331-138-331 138-138 331 138 332 331 137z m0-312q0-44-6-76t-13-47-15-23-12-9l-7-2 0 157q0 42 21 73t58 30q34 0 54 26t24 63q-49 15-104 15-105 0-191-53t-133-143q20-19 58-58t57-58q0 6 1 15t15 23 37 14l0-104 103-105 0-103q49 0 70-1t46-6 32-16 9-30q32 16 44 23t28 20 19 22 9 33 5 45l0 66 51 52-51 52 0-104-53 0q0-21-16-37t-36-16-37 16-15 37 15 37 37 15l0 157q0 21-15 36t-37 15-37-15-15-36z m156-105q0 20 15 36t38 16q21 0 36-15l52-52q15-15 15-37t-15-37l-37-36q-1-113-22-151t-111-83q-10-5-22-5-21 0-36 14t-17 33q-13 4-105 4-21 0-36 16t-15 37l0 82-241 241q-20-57-20-115 0-151 107-258t258-107 258 107 107 258q0 109-58 198t-153 132q-10-55-44-87 46-31 46-86l0-105z" horiz-adv-x="938" />
<glyph glyph-name="globe" unicode="&#xe8d3;" d="m469 819q194 0 331-137t138-332-138-331-331-138-331 138-138 331 138 332 331 137z m104-105l0 39q-53 14-104 14-94 0-176-39t-140-108l-28-35-19-30 154-153q0 6 1 15t15 23 37 14l0-104 103-105 0-103q49 0 70-1t46-6 32-16 9-30q32 16 44 23t28 20 19 22 9 33 5 45l0 66 51 52-51 52 0-104-53 0q0-21-16-37t-36-16-37 16-15 37 15 37 37 15l0 157q0 21-15 36t-37 15-37-15-15-36q0-44-6-76t-13-47-15-23-12-9l-7-2 0 157q0 42 21 73t58 30 58 31 20 73z" horiz-adv-x="938" />
<glyph glyph-name="globe-alt-outline" unicode="&#xe8d4;" d="m346 663q-86 0-147-61t-60-148 60-147 147-60 148 60 61 147-61 148-148 61z m0 104q129 0 221-92t92-221-92-220-221-92-220 92-92 220 92 221 220 92z m313-833q21 0 37-15t15-37-15-37-37-16l-520 0q-21 0-37 16t-16 37 16 37 37 15l207 0 0 51q-193 0-331 138-15 15-15 37t15 37 37 15 37-15q106-106 257-106 153 0 259 106t106 257q0 153-106 259l-37 36 107 107q15 15 37 15t37-15 14-37-15-37l-35-35q102-128 102-293 0-193-137-331-97-96-227-125l0-64 208 0z" horiz-adv-x="815" />
<glyph glyph-name="globe-alt" unicode="&#xe8d5;" d="m346-66l0 51q-193 0-331 138-15 15-15 37t15 37 37 15 37-15q106-106 257-106 153 0 259 106t106 257q0 153-106 259l-37 36 107 107q15 15 37 15t37-15 14-37-15-36l-35-36q102-128 102-293 0-193-137-331-97-96-227-125l0-64 208 0q21 0 37-15t15-37-15-37-37-16l-520 0q-21 0-37 16t-16 37 16 37 37 15l207 0z m-312 520q0 129 92 221t220 92 221-92 92-221-92-220-221-92-220 92-92 220z" horiz-adv-x="815" />
<glyph glyph-name="sun" unicode="&#xe8d6;" d="m542 766l-51-152-53 152q-7 22 3 42t31 28q30 10 56-11t14-59z m-469-363l153-53-153-52q-21-8-42 3t-28 32q-10 30 12 56t58 14z m365-469l53 152 51-152q7-21-3-42t-31-28q-30-10-56 12t-14 58z m469 364l-153 52 153 53q21 7 42-3t28-32q10-30-12-57t-58-13z m-675 383l71-145-145 72q-21 10-28 31t3 42q16 32 50 30t49-30z m-74-588l145 71-71-145q-10-21-31-28t-43 3q-31 16-30 50t30 49z m590-74l-71 145 145-71q21-10 28-32t-3-42q-16-31-50-30t-49 30z m74 589l-145-72 71 145q10 22 31 29t43-4q31-16 30-50t-30-48z m-331-493q-97 0-166 70t-69 165 69 166 166 69 165-69 68-166-68-165-165-70z m0 365q-54 0-93-38t-39-92 39-92 93-38 92 38 38 92-38 92-92 38z" horiz-adv-x="980" />
</font>
</defs>
</svg>
